<?xml version="1.0" standalone="no"?>
<!DOCTYPE svg PUBLIC "-//W3C//DTD SVG 1.1//EN" "http://www.w3.org/Graphics/SVG/1.1/DTD/svg11.dtd">
<svg xmlns="http://www.w3.org/2000/svg">
<metadata>Generated by Fontastic.me</metadata>
<defs>
<font id="lindo-fonts" horiz-adv-x="512">
<font-face font-family="lindo-fonts" units-per-em="512" ascent="480" descent="-32"/>
<missing-glyph horiz-adv-x="512" />

<glyph glyph-name="facebook-official" unicode="&#57;" d="M451 475c7 0 13-2 17-7 5-4 7-10 7-17l0-390c0-7-2-13-7-17-4-5-10-7-17-7l-112 0 0 170 57 0 9 66-66 0 0 42c0 11 3 19 7 24 5 5 13 8 26 8l35 0 0 60c-12 1-29 2-51 2-26 0-46-7-62-23-15-15-23-36-23-64l0-49-57 0 0-66 57 0 0-170-210 0c-7 0-13 2-17 7-5 4-7 10-7 17l0 390c0 7 2 13 7 17 4 5 10 7 17 7z"/>
<glyph glyph-name="fax" unicode="&#34;" d="M82 402c13 0 24-4 33-13 9-9 13-20 13-32l0-311c0-13-4-24-13-33-9-9-20-13-33-13l-36 0c-13 0-24 4-33 13-9 9-13 20-13 33l0 311c0 12 4 23 13 32 9 9 20 13 33 13z m393-46c11-7 20-16 27-27 7-11 10-23 10-36l0-220c0-20-7-37-21-52-15-14-32-21-52-21l-247 0c-13 0-23 4-32 13-9 9-14 20-14 33l0 439c0 7 3 14 8 19 6 5 12 8 20 8l192 0c7 0 16-2 25-6 9-4 16-8 22-13l43-44c5-5 10-12 14-22 4-9 5-17 5-25z m-210-283l0 37c0 2-1 5-2 6-2 2-4 3-7 3l-37 0c-2 0-4-1-6-3-2-1-3-4-3-6l0-37c0-3 1-5 3-6 2-2 4-3 6-3l37 0c3 0 5 1 7 3 1 1 2 3 2 6z m0 73l0 37c0 3-1 5-2 6-2 2-4 3-7 3l-37 0c-2 0-4-1-6-3-2-1-3-3-3-6l0-37c0-2 1-5 3-6 2-2 4-3 6-3l37 0c3 0 5 1 7 3 1 1 2 4 2 6z m0 73l0 37c0 3-1 5-2 7-2 1-4 2-7 2l-37 0c-2 0-4-1-6-2-2-2-3-4-3-7l0-37c0-2 1-4 3-6 2-2 4-3 6-3l37 0c3 0 5 1 7 3 1 2 2 4 2 6z m73-146l0 37c0 2-1 5-2 6-2 2-4 3-7 3l-36 0c-3 0-5-1-7-3-2-1-3-4-3-6l0-37c0-3 1-5 3-6 2-2 4-3 7-3l36 0c3 0 5 1 7 3 1 1 2 3 2 6z m0 73l0 37c0 3-1 5-2 6-2 2-4 3-7 3l-36 0c-3 0-5-1-7-3-2-1-3-3-3-6l0-37c0-2 1-5 3-6 2-2 4-3 7-3l36 0c3 0 5 1 7 3 1 1 2 4 2 6z m0 73l0 37c0 3-1 5-2 7-2 1-4 2-7 2l-36 0c-3 0-5-1-7-2-2-2-3-4-3-7l0-37c0-2 1-4 3-6 2-2 4-3 7-3l36 0c3 0 5 1 7 3 1 2 2 4 2 6z m73-146l0 37c0 2 0 5-2 6-2 2-4 3-7 3l-36 0c-3 0-5-1-7-3-2-1-2-4-2-6l0-37c0-3 0-5 2-6 2-2 4-3 7-3l36 0c3 0 5 1 7 3 2 1 2 3 2 6z m0 73l0 37c0 3 0 5-2 6-2 2-4 3-7 3l-36 0c-3 0-5-1-7-3-2-1-2-3-2-6l0-37c0-2 0-5 2-6 2-2 4-3 7-3l36 0c3 0 5 1 7 3 2 1 2 4 2 6z m0 73l0 37c0 3 0 5-2 7-2 1-4 2-7 2l-36 0c-3 0-5-1-7-2-2-2-2-4-2-7l0-37c0-2 0-4 2-6 2-2 4-3 7-3l36 0c3 0 5 1 7 3 2 2 2 4 2 6z m28 110l0 73-46 0c-7 0-14 3-19 8-6 6-8 12-8 20l0 45-183 0 0-146z"/>
<glyph glyph-name="female" unicode="&#35;" d="M439 210c0-7-3-14-8-19-5-5-12-8-20-8-9 0-17 4-22 12l-65 98-13 0 0-38 70-118c2-2 3-6 3-9 0-5-2-9-5-13-4-3-8-5-13-5l-55 0 0-78c0-9-3-16-10-23-6-6-13-9-22-9l-46 0c-9 0-16 3-22 9-7 7-10 14-10 23l0 78-55 0c-5 0-9 2-13 5-3 4-5 8-5 13 0 3 1 7 3 9l70 118 0 38-13 0-65-98c-5-8-13-12-22-12-8 0-15 3-20 8-5 5-8 12-8 19 0 6 2 11 5 15l73 110c14 21 31 31 50 31l110 0c19 0 36-10 50-31l73-110c3-4 5-9 5-15z m-119 229c0-18-6-33-19-45-12-13-27-19-45-19-18 0-33 6-45 19-13 12-19 27-19 45 0 18 6 33 19 45 12 13 27 19 45 19 18 0 33-6 45-19 13-12 19-27 19-45z"/>
<glyph glyph-name="file" unicode="&#36;" d="M329 366l0 135c4-3 8-6 10-8l117-117c3-3 5-6 8-10z m-36-9c0-8 2-15 8-20 5-5 11-8 19-8l155 0 0-302c0-7-2-14-8-19-5-5-11-8-19-8l-384 0c-8 0-14 3-19 8-6 5-8 12-8 19l0 458c0 7 2 14 8 19 5 5 11 8 19 8l229 0z"/>
<glyph glyph-name="file-image-o" unicode="&#37;" d="M456 403c5-5 10-12 14-21 4-9 5-18 5-25l0-330c0-7-2-14-8-19-5-5-11-8-19-8l-384 0c-8 0-14 3-19 8-6 5-8 12-8 19l0 458c0 7 2 14 8 19 5 5 11 8 19 8l256 0c8 0 16-2 25-6 9-4 17-8 22-13z m-127 70l0-107 108 0c-2 5-4 9-7 11l-89 90c-2 2-6 4-12 6z m110-436l0 292-119 0c-8 0-14 3-19 8-6 5-8 12-8 20l0 118-220 0 0-438z m-37 128l0-92-292 0 0 55 55 55 36-37 110 110z m-237 54c-16 0-29 6-39 16-11 11-16 24-16 39 0 16 5 28 16 39 10 11 23 16 39 16 15 0 28-5 38-16 11-11 16-23 16-39 0-15-5-28-16-39-10-10-23-16-38-16z"/>
<glyph glyph-name="file-o" unicode="&#38;" d="M456 403c5-5 10-12 14-21 4-9 5-18 5-25l0-330c0-7-2-14-8-19-5-5-11-8-19-8l-384 0c-8 0-14 3-19 8-6 5-8 12-8 19l0 458c0 7 2 14 8 19 5 5 11 8 19 8l256 0c8 0 16-2 25-6 9-4 17-8 22-13z m-127 70l0-107 108 0c-2 5-4 9-7 11l-89 90c-2 2-6 4-12 6z m110-436l0 292-119 0c-8 0-14 3-19 8-6 5-8 12-8 20l0 118-220 0 0-438z"/>
<glyph glyph-name="file-pdf-o" unicode="&#40;" d="M456 403c5-5 10-12 14-21 4-9 5-18 5-25l0-330c0-7-2-14-8-19-5-5-11-8-19-8l-384 0c-8 0-14 3-19 8-6 5-8 12-8 19l0 458c0 7 2 14 8 19 5 5 11 8 19 8l256 0c8 0 16-2 25-6 9-4 17-8 22-13z m-127 70l0-107 108 0c-2 5-4 9-7 11l-89 90c-2 2-6 4-12 6z m110-436l0 292-119 0c-8 0-14 3-19 8-6 5-8 12-8 20l0 118-220 0 0-438z m-147 169c6-5 14-10 24-16 11 1 22 2 33 2 28 0 45-5 51-14 3-4 3-9 1-15 0 0-1 0-1 0l0-1 0 0c-1-8-8-11-21-11-9 0-20 2-32 6-13 3-26 8-38 15-42-5-79-13-112-24-29-50-52-75-69-75-3 0-5 1-8 2l-7 4c0 0 0 0-1 1-2 2-3 5-2 10 2 8 7 17 16 26 9 10 22 19 38 28 2 2 5 1 6-2 1 0 1 0 1-1 10 16 20 35 30 56 13 26 23 51 30 75-4 16-7 31-9 46-1 15 0 27 2 36 2 8 6 12 12 12l7 0c4 0 7-2 10-5 3-4 4-10 2-19 0-1-1-2-1-2 0-1 0-2 0-3l0-8c0-24-1-42-4-55 11-31 25-54 42-68z m-165-117c10 4 23 19 40 45-10-8-18-16-25-24-7-9-12-16-15-21z m114 262c-3-8-3-20 0-37 0 1 0 5 2 12 0 1 0 5 2 13 0 0 0 1 1 2 0 0-1 0-1 0 0 1 0 1 0 1 0 0 0 0 0 0 0 4-1 8-4 11 0-1 0-1 0-1z m-35-188c25 10 52 18 81 23-1 0-2 1-4 2-2 2-3 3-4 4-15 13-27 30-37 51-5-17-13-36-23-57-6-10-10-18-13-23z m184 4c-4 5-18 7-40 7 15-5 27-8 36-8 2 0 4 0 5 0 0 0 0 1-1 1z"/>
<glyph glyph-name="file-text" unicode="&#41;" d="M456 376c3-3 5-6 8-10l-135 0 0 135c4-3 8-6 10-8z m-136-47l155 0 0-302c0-7-2-14-8-19-5-5-11-8-19-8l-384 0c-8 0-14 3-19 8-6 5-8 12-8 19l0 458c0 7 2 14 8 19 5 5 11 8 19 8l229 0 0-155c0-8 2-15 8-20 5-5 11-8 19-8z m46-210l0 18c0 3-1 5-3 7-2 1-4 2-6 2l-202 0c-2 0-4-1-6-2-2-2-3-4-3-7l0-18c0-3 1-5 3-7 2-1 4-2 6-2l202 0c2 0 4 1 6 2 2 2 3 4 3 7z m0 73l0 18c0 3-1 5-3 7-2 2-4 2-6 2l-202 0c-2 0-4 0-6-2-2-2-3-4-3-7l0-18c0-3 1-5 3-7 2-1 4-2 6-2l202 0c2 0 4 1 6 2 2 2 3 4 3 7z m0 73l0 18c0 3-1 5-3 7-2 2-4 3-6 3l-202 0c-2 0-4-1-6-3-2-2-3-4-3-7l0-18c0-3 1-5 3-6 2-2 4-3 6-3l202 0c2 0 4 1 6 3 2 1 3 3 3 6z"/>
<glyph glyph-name="file-text-o" unicode="&#43;" d="M456 403c5-5 10-12 14-21 4-9 5-18 5-25l0-330c0-7-2-14-8-19-5-5-11-8-19-8l-384 0c-8 0-14 3-19 8-6 5-8 12-8 19l0 458c0 7 2 14 8 19 5 5 11 8 19 8l256 0c8 0 16-2 25-6 9-4 17-8 22-13z m-127 70l0-107 108 0c-2 5-4 9-7 11l-89 90c-2 2-6 4-12 6z m110-436l0 292-119 0c-8 0-14 3-19 8-6 5-8 12-8 20l0 118-220 0 0-438z m-293 246c0 3 1 5 3 7 2 2 4 3 6 3l202 0c2 0 4-1 6-3 2-2 3-4 3-7l0-18c0-3-1-5-3-6-2-2-4-3-6-3l-202 0c-2 0-4 1-6 3-2 1-3 3-3 6z m211-64c2 0 4 0 6-2 2-2 3-4 3-7l0-18c0-3-1-5-3-7-2-1-4-2-6-2l-202 0c-2 0-4 1-6 2-2 2-3 4-3 7l0 18c0 3 1 5 3 7 2 2 4 2 6 2z m0-73c2 0 4-1 6-2 2-2 3-4 3-7l0-18c0-3-1-5-3-7-2-1-4-2-6-2l-202 0c-2 0-4 1-6 2-2 2-3 4-3 7l0 18c0 3 1 5 3 7 2 1 4 2 6 2z"/>
<glyph glyph-name="files-o" unicode="&#44;" d="M485 402c7 0 14-2 19-8 5-5 8-12 8-19l0-348c0-7-3-14-8-19-5-5-12-8-19-8l-275 0c-7 0-14 3-19 8-5 5-8 12-8 19l0 83-156 0c-7 0-14 2-19 8-5 5-8 12-8 19l0 192c0 8 2 16 6 25 4 9 8 17 13 22l117 117c5 5 13 9 22 13 9 4 17 6 25 6l119 0c7 0 14-3 19-8 5-5 8-12 8-19l0-94c13 7 25 11 37 11z m-156-61l-85-85 85 0z m-183 110l-85-85 85 0z m56-185l91 91 0 118-110 0 0-118c0-8-3-15-8-20-5-5-12-8-20-8l-118 0 0-183 146 0 0 73c0 8 2 16 6 26 3 9 8 16 13 21z m273-229l0 329-109 0 0-119c0-8-3-14-8-20-6-5-12-8-20-8l-119 0 0-182z"/>
<glyph glyph-name="floppy-o" unicode="&#46;" d="M146 73l220 0 0 110-220 0z m256 0l37 0 0 256c0 3-1 6-3 11-2 5-4 8-6 10l-80 80c-2 2-5 4-10 6-4 2-8 3-11 3l0-119c0-8-3-14-8-19-5-6-12-8-19-8l-165 0c-7 0-14 2-19 8-6 5-8 11-8 19l0 119-37 0 0-366 37 0 0 119c0 8 2 14 8 19 5 6 12 8 19 8l238 0c7 0 14-2 19-8 6-5 8-11 8-19z m-109 265l0 92c0 2-1 4-3 6-2 2-4 3-7 3l-54 0c-3 0-5-1-7-3-2-2-3-4-3-6l0-92c0-2 1-4 3-6 2-2 4-3 7-3l54 0c3 0 5 1 7 3 2 2 3 4 3 6z m182-9l0-265c0-8-2-14-8-19-5-6-11-8-19-8l-384 0c-8 0-14 2-19 8-6 5-8 11-8 19l0 384c0 8 2 14 8 19 5 6 11 8 19 8l265 0c8 0 16-1 25-5 9-4 17-9 22-14l80-80c5-5 10-13 14-22 4-9 5-17 5-25z"/>
<glyph glyph-name="folder-open" unicode="&#58;" d="M519 240c0-6-3-12-9-19l-96-113c-8-10-20-18-35-25-14-6-28-10-41-10l-311 0c-6 0-12 1-17 4-5 2-7 6-7 12 0 6 3 12 8 19l96 113c9 10 20 18 35 25 15 7 28 10 41 10l311 0c6 0 12-1 17-4 5-2 8-6 8-12z m-98 98l0-45-238 0c-18 0-37-5-56-14-20-9-36-20-47-34l-97-113-1-2c0 1 0 2 0 4 0 1 0 2 0 3l0 274c0 18 6 33 19 46 12 12 27 18 45 18l91 0c18 0 33-6 45-18 13-13 19-28 19-46l0-9 156 0c17 0 32-6 45-19 12-12 19-27 19-45z"/>
<glyph glyph-name="folder-open-o" unicode="&#60;" d="M491 246c0 7-5 10-16 10l-310 0c-8 0-16-2-25-6-9-4-15-9-20-15l-84-104c-4-4-5-8-5-11 0-7 5-10 15-10l311 0c7 0 15 2 24 6 9 4 16 9 20 15l84 104c4 4 6 8 6 11z m-326 47l219 0 0 45c0 8-3 14-8 20-5 5-12 8-19 8l-165 0c-8 0-14 2-19 8-6 5-8 12-8 19l0 18c0 8-3 15-8 20-6 5-12 8-20 8l-91 0c-8 0-14-3-20-8-5-5-8-12-8-20l0-243 73 90c9 10 20 18 34 25 13 6 27 10 40 10z m362-47c0-12-4-23-13-34l-84-104c-8-10-20-18-33-25-14-7-28-10-40-10l-311 0c-18 0-33 6-45 19-13 13-19 28-19 45l0 274c0 18 6 33 19 46 12 12 27 18 45 18l91 0c18 0 33-6 45-18 13-13 19-28 19-46l0-9 156 0c17 0 32-6 45-19 12-12 19-27 19-45l0-45 54 0c11 0 20-3 29-7 8-5 15-12 19-21 3-6 4-12 4-19z"/>
<glyph glyph-name="pie-chart" unicode="&#57383;" d="M219 258l156-156c-20-21-43-37-70-48-27-12-56-17-86-17-39 0-76 9-110 29-33 20-60 46-80 80-19 33-29 70-29 110 0 40 10 77 29 110 20 34 47 60 80 80 34 20 71 29 110 29z m54-2l221 0c0-30-6-58-17-85-12-27-28-51-48-71z m202 37l-219 0 0 219c40 0 77-10 110-29 34-20 60-47 80-80 20-34 29-71 29-110z"/>
<glyph glyph-name="plane" unicode="&#57384;" d="M448 466c8-10 10-24 3-42-6-18-16-35-30-49l-46-46 45-199c1-4 0-7-3-9l-37-28c-1-1-3-2-5-2-1 0-2 1-2 1-3 0-5 2-6 4l-80 145-74-74 15-55c1-3 0-6-2-9l-27-27c-2-2-4-3-7-3l-1 0c-2 1-5 2-6 4l-54 72-72 54c-3 1-4 3-4 6 0 3 1 5 2 8l28 27c2 2 4 3 6 3 2 0 2 0 3 0l55-16 74 74-145 80c-3 2-4 4-5 7 0 3 1 6 3 8l36 36c3 3 6 4 9 3l190-46 46 46c14 14 30 25 49 31 18 6 32 5 42-4z"/>
<glyph glyph-name="play" unicode="&#57385;" d="M450 247l-379-211c-5-2-8-2-11-1-4 2-5 6-5 11l0 420c0 5 1 9 5 11 3 1 6 1 11-1l379-211c5-3 7-6 7-9 0-3-2-6-7-9z"/>
<glyph glyph-name="plus" unicode="&#57386;" d="M457 302l0-55c0-8-3-14-8-20-5-5-12-8-19-8l-119 0 0-118c0-8-3-15-8-20-5-5-12-8-20-8l-54 0c-8 0-15 3-20 8-5 5-8 12-8 20l0 118-119 0c-7 0-14 3-19 8-5 6-8 12-8 20l0 55c0 7 3 14 8 19 5 5 12 8 19 8l119 0 0 119c0 8 3 14 8 19 5 6 12 8 20 8l54 0c8 0 15-2 20-8 5-5 8-11 8-19l0-119 119 0c7 0 14-3 19-8 5-5 8-12 8-19z"/>
<glyph glyph-name="plus-circle" unicode="&#57387;" d="M384 238l0 36c0 5-2 10-5 13-4 4-8 6-13 6l-73 0 0 73c0 5-2 9-6 13-3 3-8 5-13 5l-36 0c-5 0-10-2-13-5-4-4-6-8-6-13l0-73-73 0c-5 0-9-2-13-6-3-3-5-8-5-13l0-36c0-5 2-10 5-13 4-4 8-6 13-6l73 0 0-73c0-5 2-9 6-13 3-3 8-5 13-5l36 0c5 0 10 2 13 5 4 4 6 8 6 13l0 73 73 0c5 0 9 2 13 6 3 3 5 8 5 13z m91 18c0-40-9-77-29-110-20-34-46-60-80-80-33-20-70-29-110-29-40 0-77 9-110 29-34 20-60 46-80 80-20 33-29 70-29 110 0 40 9 77 29 110 20 34 46 60 80 80 33 20 70 29 110 29 40 0 77-9 110-29 34-20 60-46 80-80 20-33 29-70 29-110z"/>
<glyph glyph-name="plus-square" unicode="&#57388;" d="M402 238l0 36c0 5-2 10-5 13-4 4-8 6-13 6l-91 0 0 91c0 5-2 9-6 13-3 3-8 5-13 5l-36 0c-5 0-10-2-13-5-4-4-6-8-6-13l0-91-91 0c-5 0-9-2-13-6-3-3-5-8-5-13l0-36c0-5 2-10 5-13 4-4 8-6 13-6l91 0 0-91c0-5 2-9 6-13 3-3 8-5 13-5l36 0c5 0 10 2 13 5 4 4 6 8 6 13l0 91 91 0c5 0 9 2 13 6 3 3 5 8 5 13z m73 155l0-274c0-23-8-42-24-58-16-16-35-24-58-24l-274 0c-23 0-42 8-58 24-16 16-24 35-24 58l0 274c0 23 8 42 24 58 16 16 35 24 58 24l274 0c23 0 42-8 58-24 16-16 24-35 24-58z"/>
<glyph glyph-name="plus-square-o" unicode="&#57389;" d="M384 283l0-18c0-3-1-5-3-6-1-2-3-3-6-3l-101 0 0-101c0-2-1-4-2-6-2-2-4-3-7-3l-18 0c-3 0-5 1-7 3-1 2-2 4-2 6l0 101-101 0c-3 0-5 1-6 3-2 1-3 3-3 6l0 18c0 3 1 5 3 7 1 2 3 3 6 3l101 0 0 100c0 3 1 5 2 7 2 1 4 2 7 2l18 0c3 0 5-1 7-2 1-2 2-4 2-7l0-100 101 0c3 0 5-1 6-3 2-2 3-4 3-7z m37-128l0 238c0 13-5 23-14 32-9 9-20 14-32 14l-238 0c-12 0-23-5-32-14-9-9-14-19-14-32l0-238c0-12 5-23 14-32 9-9 20-13 32-13l238 0c12 0 23 4 32 13 9 9 14 20 14 32z m36 238l0-238c0-22-8-42-24-58-16-16-35-24-58-24l-238 0c-23 0-42 8-58 24-16 16-24 36-24 58l0 238c0 23 8 42 24 58 16 16 35 24 58 24l238 0c23 0 42-8 58-24 16-16 24-35 24-58z"/>
<glyph glyph-name="print" unicode="&#57390;" d="M128 73l256 0 0 73-256 0z m0 183l256 0 0 110-46 0c-7 0-14 2-19 8-5 5-8 12-8 19l0 46-183 0z m329-18c0 5-2 9-5 13-4 3-8 5-13 5-5 0-9-2-13-5-4-4-5-8-5-13 0-5 1-10 5-13 4-4 8-6 13-6 5 0 9 2 13 6 3 3 5 8 5 13z m37 0l0-119c0-3-1-5-3-7-2-1-4-2-6-2l-64 0 0-46c0-8-3-14-8-19-6-6-12-8-20-8l-274 0c-8 0-14 2-20 8-5 5-8 11-8 19l0 46-64 0c-2 0-4 1-6 2-2 2-3 4-3 7l0 119c0 15 6 28 16 38 11 11 24 17 39 17l18 0 0 155c0 8 3 14 8 19 6 6 12 8 20 8l192 0c7 0 16-1 25-5 9-4 16-9 22-14l43-43c5-6 10-13 14-22 4-9 6-18 6-25l0-73 18 0c15 0 28-6 39-17 10-10 16-23 16-38z"/>
<glyph glyph-name="power-off" unicode="&#57391;" d="M475 256c0-30-5-58-17-85-12-27-27-51-47-70-19-20-43-35-70-47-27-12-55-17-85-17-30 0-58 5-85 17-27 12-51 27-70 47-20 19-35 43-47 70-12 27-17 55-17 85 0 35 7 67 23 98 15 31 36 56 64 77 8 6 18 9 28 7 10-1 18-6 23-14 7-8 9-17 7-27-1-10-6-18-14-24-18-14-33-31-43-52-10-20-15-42-15-65 0-20 4-39 11-57 8-18 18-33 32-46 13-14 28-24 46-32 18-7 37-11 57-11 20 0 39 4 57 11 18 8 33 18 46 32 14 13 24 28 32 46 7 18 11 37 11 57 0 23-5 45-15 65-10 21-25 38-43 52-8 6-13 14-14 24-2 10 0 19 7 27 5 8 13 13 24 14 10 2 19-1 27-7 28-21 49-46 64-77 16-31 23-63 23-98z m-182 219l0-182c0-10-4-19-11-26-8-7-16-11-26-11-10 0-18 4-26 11-7 7-11 16-11 26l0 182c0 10 4 19 11 26 8 7 16 11 26 11 10 0 18-4 26-11 7-7 11-16 11-26z"/>
<glyph glyph-name="search" unicode="&#57392;" d="M347 274c0 36-12 66-37 91-25 25-55 37-91 37-35 0-65-12-90-37-25-25-38-55-38-91 0-35 13-65 38-90 25-25 55-38 90-38 36 0 66 13 91 38 25 25 37 55 37 90z m147-237c0-10-4-19-11-26-7-7-16-11-26-11-10 0-19 4-26 11l-98 98c-34-24-72-36-114-36-27 0-53 5-78 16-25 11-46 25-64 43-18 18-32 39-43 64-10 25-16 51-16 78 0 28 6 54 16 78 11 25 25 47 43 65 18 18 39 32 64 43 25 10 51 15 78 15 28 0 54-5 79-15 24-11 46-25 64-43 18-18 32-40 43-65 10-24 16-50 16-78 0-42-12-80-36-114l98-98c7-7 11-15 11-25z"/>
<glyph glyph-name="search-minus" unicode="&#57393;" d="M311 283l0-18c0-2-1-4-3-6-2-2-4-3-6-3l-165 0c-2 0-4 1-6 3-2 2-3 4-3 6l0 18c0 3 1 5 3 7 2 2 4 3 6 3l165 0c2 0 4-1 6-3 2-2 3-4 3-7z m36-9c0 36-12 66-37 91-25 25-55 37-91 37-35 0-65-12-90-37-25-25-38-55-38-91 0-35 13-65 38-90 25-25 55-38 90-38 36 0 66 13 91 38 25 25 37 55 37 90z m147-237c0-11-4-19-11-26-7-7-16-11-26-11-10 0-19 4-26 11l-98 98c-34-24-72-36-114-36-27 0-53 5-78 16-25 11-46 25-64 43-18 18-32 39-43 64-10 25-16 51-16 78 0 28 6 54 16 78 11 25 25 47 43 65 18 18 39 32 64 43 25 10 51 15 78 15 28 0 54-5 79-15 24-11 46-25 64-43 18-18 32-40 43-65 10-24 16-50 16-78 0-42-12-80-36-114l98-98c7-7 11-15 11-25z"/>
<glyph glyph-name="search-plus" unicode="&#57394;" d="M311 283l0-18c0-2-1-4-3-6-2-2-4-3-6-3l-64 0 0-64c0-2-1-5-3-6-2-2-4-3-6-3l-19 0c-2 0-4 1-6 3-2 1-3 4-3 6l0 64-64 0c-2 0-4 1-6 3-2 2-3 4-3 6l0 18c0 3 1 5 3 7 2 2 4 3 6 3l64 0 0 64c0 2 1 4 3 6 2 2 4 3 6 3l19 0c2 0 4-1 6-3 2-2 3-4 3-6l0-64 64 0c2 0 4-1 6-3 2-2 3-4 3-7z m36-9c0 36-12 66-37 91-25 25-55 37-91 37-35 0-65-12-90-37-25-25-38-55-38-91 0-35 13-65 38-90 25-25 55-38 90-38 36 0 66 13 91 38 25 25 37 55 37 90z m147-237c0-11-4-19-11-26-7-7-16-11-26-11-10 0-19 4-26 11l-98 98c-34-24-72-36-114-36-27 0-53 5-78 16-25 11-46 25-64 43-18 18-32 39-43 64-10 25-16 51-16 78 0 28 6 54 16 78 11 25 25 47 43 65 18 18 39 32 64 43 25 10 51 15 78 15 28 0 54-5 79-15 24-11 46-25 64-43 18-18 32-40 43-65 10-24 16-50 16-78 0-42-12-80-36-114l98-98c7-7 11-15 11-25z"/>
<glyph glyph-name="share-alt" unicode="&#57395;" d="M384 219c25 0 47-8 65-26 18-18 26-40 26-65 0-25-8-47-26-65-18-18-40-26-65-26-25 0-47 8-65 26-18 18-26 40-26 65 0 2 0 6 0 10l-103 51c-17-16-38-24-62-24-25 0-47 8-65 26-18 18-26 40-26 65 0 25 8 47 26 65 18 18 40 26 65 26 24 0 45-8 62-24l103 51c0 4 0 8 0 10 0 25 8 47 26 65 18 18 40 26 65 26 25 0 47-8 65-26 18-18 26-40 26-65 0-25-8-47-26-65-18-18-40-26-65-26-24 0-45 8-62 24l-103-51c0-4 0-8 0-10 0-2 0-6 0-10l103-51c17 16 38 24 62 24z"/>
<glyph glyph-name="shopping-cart" unicode="&#57396;" d="M201 73c0-10-3-18-11-26-7-7-16-10-25-10-10 0-19 3-26 10-7 8-11 16-11 26 0 10 4 19 11 26 7 7 16 11 26 11 9 0 18-4 25-11 8-7 11-16 11-26z m256 0c0-10-3-18-11-26-7-7-16-10-25-10-10 0-19 3-26 10-7 8-11 16-11 26 0 10 4 19 11 26 7 7 16 11 26 11 9 0 18-4 25-11 8-7 11-16 11-26z m37 311l0-146c0-5-2-9-5-12-3-4-7-6-12-7l-298-34c3-12 4-19 4-20 0-3-2-10-7-19l263 0c5 0 9-2 13-5 3-4 5-8 5-13 0-5-2-9-5-13-4-3-8-5-13-5l-293 0c-5 0-9 2-13 5-3 4-5 8-5 13 0 2 1 5 2 9 2 4 3 7 5 10 1 3 3 7 6 12 3 4 4 7 4 8l-50 235-58 0c-5 0-10 2-13 6-4 3-6 8-6 13 0 5 2 9 6 12 3 4 8 6 13 6l73 0c3 0 5-1 8-2 2-1 4-3 5-4 2-2 3-4 4-7 1-3 2-6 2-8 1-2 1-5 2-8 1-4 1-6 1-8l343 0c5 0 10-2 13-5 4-4 6-8 6-13z"/>
<glyph glyph-name="ship" unicode="&#57397;" d="M481 68c3 3 8 5 13 5 5 0 9-2 13-5l36-37-26-26-23 24-24-24c-3-3-8-5-13-5-5 0-9 2-13 5l-23 24-24-24c-4-3-8-5-13-5-5 0-9 2-13 5l-24 24-23-24c-4-3-8-5-13-5-5 0-9 2-13 5l-24 24-23-24c-4-3-8-5-13-5-5 0-10 2-13 5l-24 24-24-24c-3-3-7-5-12-5-5 0-10 2-13 5l-24 24-24-24c-3-3-8-5-13-5-5 0-9 2-12 5l-24 24-24-24c-3-3-8-5-13-5-5 0-9 2-13 5l-36 37 26 26 23-24 24 24c4 3 8 5 13 5 5 0 9-2 13-5l23-24 24 24c4 3 8 5 13 5 5 0 9-2 13-5l24-24 23 24c4 3 8 5 13 5 5 0 9-2 13-5l24-24 23 24c4 3 8 5 13 5 5 0 10-2 13-5l24-24 24 24c3 3 7 5 12 5 5 0 10-2 13-5l24-24 24 24c3 3 8 5 13 5 5 0 9-2 12-5l24-24z m-450 11c-3-4-8-6-13-6-5 0-9 2-13 6l-36 36 26 26 23-24 24 24c4 3 8 5 13 5 5 0 9-2 13-5l23-24 19 19 0 83-60 90c-4 5-4 10-2 16 2 6 5 10 11 12l51 16 0 86 36 0 0 36 73 0 0 37 74 0 0-37 73 0 0-36 36 0 0-86 51-16c6-2 9-6 11-12 2-6 2-11-2-16l-60-90 0-83 6 5c3 3 8 5 13 5 5 0 9-2 12-5l24-24 24 24c3 3 8 5 13 5 5 0 9-2 13-5l36-37-26-25-23 23-24-23c-3-4-8-6-13-6-5 0-9 2-13 6l-23 23-24-23c-4-4-8-6-13-6-5 0-9 2-13 6l-24 23-23-23c-4-4-8-6-13-6-5 0-9 2-13 6l-24 23-23-23c-4-4-8-6-13-6-5 0-10 2-13 6l-24 23-24-23c-3-4-7-6-12-6-5 0-10 2-13 6l-24 23-24-23c-3-4-8-6-13-6-5 0-9 2-12 6l-24 23z m115 323l0-36 110 36 110-36 0 36-37 0 0 37-146 0 0-37z"/>
<glyph glyph-name="sign-in" unicode="&#57398;" d="M375 256c0-5-2-9-6-13l-155-155c-4-4-8-6-13-6-5 0-9 2-13 6-3 3-5 8-5 13l0 82-128 0c-5 0-9 2-13 5-4 4-5 8-5 13l0 110c0 5 1 9 5 13 4 3 8 5 13 5l128 0 0 82c0 5 2 10 5 13 4 4 8 6 13 6 5 0 9-2 13-6l155-155c4-4 6-8 6-13z m100 101l0-202c0-22-8-42-24-58-16-16-35-24-58-24l-91 0c-3 0-5 1-7 3-2 2-2 4-2 6 0 1-1 3-1 6 0 3 0 6 0 8 0 2 1 4 1 6 0 3 1 5 3 6 1 1 3 2 6 2l91 0c13 0 23 4 32 13 9 9 14 20 14 32l0 202c0 12-5 23-14 32-9 9-19 13-32 13l-89 0-3 1-4 0-2 2-2 3 0 3c0 1-1 3-1 6 0 3 0 6 0 8 0 2 1 4 1 6 0 3 1 5 3 6 1 1 3 2 6 2l91 0c23 0 42-8 58-24 16-16 24-36 24-58z"/>
<glyph glyph-name="sign-out" unicode="&#57399;" d="M201 101c0-1 0-3 0-6 1-3 1-6 1-8-1-2-1-4-1-6-1-3-2-5-3-6-2-1-4-2-6-2l-91 0c-23 0-42 8-59 24-16 16-24 36-24 58l0 202c0 22 8 42 24 58 17 16 36 24 59 24l91 0c2 0 5-1 6-3 2-2 3-4 3-6 0-1 0-3 0-6 1-3 1-6 1-8-1-2-1-4-1-6-1-3-2-5-3-6-2-1-4-2-6-2l-91 0c-13 0-24-4-33-13-9-9-13-20-13-32l0-202c0-12 4-23 13-32 9-9 20-13 33-13l89 0 3-1 3 0 3-2 2-3z m265 155c0-5-2-9-5-13l-156-155c-3-4-7-6-12-6-5 0-10 2-13 6-4 3-6 8-6 13l0 82-128 0c-5 0-9 2-13 5-3 4-5 8-5 13l0 110c0 5 2 9 5 13 4 3 8 5 13 5l128 0 0 82c0 5 2 10 6 13 3 4 8 6 13 6 5 0 9-2 12-6l156-155c3-4 5-8 5-13z"/>
<glyph glyph-name="signal" unicode="&#57400;" d="M73 101l0-55c0-3-1-5-2-7-2-2-4-2-7-2l-55 0c-3 0-5 0-6 2-2 2-3 4-3 7l0 55c0 2 1 4 3 6 1 2 3 3 6 3l55 0c3 0 5-1 7-3 1-2 2-4 2-6z m110 36l0-91c0-3-1-5-3-7-1-2-4-2-6-2l-55 0c-3 0-5 0-7 2-1 2-2 4-2 7l0 91c0 3 1 5 2 7 2 1 4 2 7 2l55 0c2 0 5-1 6-2 2-2 3-4 3-7z m110 73l0-164c0-3-1-5-3-7-2-2-4-2-7-2l-54 0c-3 0-5 0-7 2-2 2-3 4-3 7l0 164c0 3 1 5 3 7 2 2 4 2 7 2l54 0c3 0 5 0 7-2 2-2 3-4 3-7z m109 110l0-274c0-3-1-5-2-7-2-2-4-2-7-2l-55 0c-2 0-5 0-6 2-2 2-3 4-3 7l0 274c0 3 1 5 3 7 1 1 4 2 6 2l55 0c3 0 5-1 7-2 1-2 2-4 2-7z m110 146l0-420c0-3-1-5-3-7-1-2-3-2-6-2l-55 0c-3 0-5 0-7 2-1 2-2 4-2 7l0 420c0 3 1 5 2 7 2 2 4 2 7 2l55 0c3 0 5 0 6-2 2-2 3-4 3-7z"/>
<glyph glyph-name="sitemap" unicode="&#57401;" d="M512 155l0-91c0-8-3-14-8-19-5-6-12-8-19-8l-92 0c-7 0-14 2-19 8-6 5-8 11-8 19l0 91c0 8 2 15 8 20 5 5 12 8 19 8l28 0 0 55-147 0 0-55 28 0c7 0 14-3 19-8 5-5 8-12 8-20l0-91c0-8-3-14-8-19-5-6-12-8-19-8l-92 0c-7 0-14 2-19 8-5 5-8 11-8 19l0 91c0 8 3 15 8 20 5 5 12 8 19 8l28 0 0 55-147 0 0-55 28 0c7 0 14-3 19-8 6-5 8-12 8-20l0-91c0-8-2-14-8-19-5-6-12-8-19-8l-92 0c-7 0-14 2-19 8-5 5-8 11-8 19l0 91c0 8 3 15 8 20 5 5 12 8 19 8l28 0 0 55c0 10 3 18 11 25 7 8 16 11 25 11l147 0 0 55-28 0c-7 0-14 3-19 8-5 5-8 12-8 20l0 91c0 8 3 14 8 19 5 6 12 8 19 8l92 0c7 0 14-2 19-8 5-5 8-11 8-19l0-91c0-8-3-15-8-20-5-5-12-8-19-8l-28 0 0-55 147 0c9 0 18-3 25-11 8-7 11-15 11-25l0-55 28 0c7 0 14-3 19-8 5-5 8-12 8-20z"/>
<glyph glyph-name="sliders" unicode="&#57402;" d="M137 110l0-37-100 0 0 37z m101 36c5 0 9-2 13-5 3-4 5-8 5-13l0-73c0-5-2-9-5-13-4-4-8-5-13-5l-73 0c-5 0-10 1-13 5-4 4-6 8-6 13l0 73c0 5 2 9 6 13 3 3 8 5 13 5z m45 110l0-37-246 0 0 37z m-182 146l0-36-64 0 0 36z m374-292l0-37-210 0 0 37z m-274 329c5 0 9-2 13-6 4-3 5-7 5-12l0-74c0-5-1-9-5-12-4-4-8-6-13-6l-73 0c-5 0-9 2-13 6-3 3-5 7-5 12l0 74c0 5 2 9 5 12 4 4 8 6 13 6z m183-146c5 0 9-2 13-6 3-3 5-8 5-13l0-73c0-5-2-9-5-13-4-3-8-5-13-5l-73 0c-5 0-9 2-13 5-4 4-5 8-5 13l0 73c0 5 1 10 5 13 4 4 8 6 13 6z m91-37l0-37-64 0 0 37z m0 146l0-36-246 0 0 36z"/>
<glyph glyph-name="slideshare" unicode="&#57403;" d="M249 301c0-16-6-30-18-41-12-11-26-17-43-17-17 0-32 6-44 17-12 11-18 25-18 41 0 16 6 29 18 40 12 12 27 17 44 17 17 0 31-5 43-17 12-11 18-24 18-40z m144 0c0-16-6-30-18-41-12-11-27-17-44-17-17 0-31 6-43 17-13 11-19 25-19 41 0 16 6 29 19 40 12 12 26 17 43 17 17 0 32-5 44-17 12-11 18-24 18-40z m64-52l0 191c0 16-3 28-9 35-6 7-17 10-32 10l-317 0c-16 0-27-3-33-9-5-7-8-19-8-36l0-193c8-4 17-8 25-11 9-3 17-6 23-8 7-2 15-4 24-5 8-2 15-3 20-3 5-1 11-1 20-2 8 0 14 0 17-1 2-1 8-1 16 1 8 1 12 1 12 0 13 0 22-2 28-8 1-1 2-2 2-2 5-5 11-10 18-15 1 18 12 26 34 25 1 0 4 0 10 0 6-1 10-1 12-1 2 0 7 0 13 0 7 0 12 0 15 0 4 0 9 1 16 1 7 1 13 2 17 3 5 1 11 2 18 4 7 1 13 3 19 5 6 2 13 5 20 8 7 3 13 6 20 10z m47 2c-23-29-59-53-107-72 16-55 14-99-6-133-13-22-30-36-52-43-20-6-38-4-52 5-17 9-25 25-24 47l0 93 0 0c-2 0-4 1-7 2-3 0-6 1-7 1l0-96c1-22-7-38-24-47-15-9-32-11-52-5-22 7-40 22-52 43-20 35-22 79-6 133-48 19-84 43-107 72-4 7-5 13-1 18 4 5 10 4 17-1 1 0 2-1 3-2 2-1 3-1 4-2l0 198c0 14 4 26 13 35 9 10 20 15 33 15l359 0c12 0 23-5 32-15 9-9 14-21 14-35l0-198 6 4c7 5 13 6 17 1 4-5 3-11-1-18z"/>
<glyph glyph-name="sort-amount-asc" unicode="&#57404;" d="M210 101c0-3-1-5-3-7l-91-91c-2-2-4-3-6-3-3 0-5 1-7 3l-91 91c-3 3-4 6-2 10 1 4 4 6 8 6l55 0 0 393c0 3 1 5 3 6 1 2 4 3 6 3l55 0c3 0 5-1 7-3 1-1 2-3 2-6l0-393 55 0c3 0 5-1 7-3 1-2 2-4 2-6z m302-37l0-55c0-3-1-5-3-6-1-2-3-3-6-3l-238 0c-3 0-5 1-6 3-2 1-3 3-3 6l0 55c0 3 1 5 3 7 1 1 3 2 6 2l238 0c3 0 5-1 6-2 2-2 3-4 3-7z m-55 146l0-55c0-2-1-4-2-6-2-2-4-3-7-3l-183 0c-3 0-5 1-6 3-2 2-3 4-3 6l0 55c0 3 1 5 3 7 1 2 3 2 6 2l183 0c3 0 5 0 7-2 1-2 2-4 2-7z m-55 147l0-55c0-3-1-5-2-7-2-2-4-2-7-2l-128 0c-3 0-5 0-6 2-2 2-3 4-3 7l0 55c0 2 1 4 3 6 1 2 3 3 6 3l128 0c3 0 5-1 7-3 1-2 2-4 2-6z m-55 146l0-55c0-3 0-5-2-7-2-1-4-2-7-2l-73 0c-3 0-5 1-6 2-2 2-3 4-3 7l0 55c0 3 1 5 3 6 1 2 3 3 6 3l73 0c3 0 5-1 7-3 2-1 2-3 2-6z"/>
<glyph glyph-name="sort-amount-desc" unicode="&#57405;" d="M347 64l0-55c0-3 0-5-2-6-2-2-4-3-7-3l-73 0c-3 0-5 1-6 3-2 1-3 3-3 6l0 55c0 3 1 5 3 7 1 1 3 2 6 2l73 0c3 0 5-1 7-2 2-2 2-4 2-7z m-137 37c0-3-1-5-3-7l-91-91c-2-2-4-3-6-3-3 0-5 1-7 3l-91 91c-3 3-4 6-2 10 1 4 4 6 8 6l55 0 0 393c0 3 1 5 3 6 1 2 4 3 6 3l55 0c3 0 5-1 7-3 1-1 2-3 2-6l0-393 55 0c3 0 5-1 7-3 1-2 2-4 2-6z m192 109l0-55c0-2-1-4-2-6-2-2-4-3-7-3l-128 0c-3 0-5 1-6 3-2 2-3 4-3 6l0 55c0 3 1 5 3 7 1 2 3 2 6 2l128 0c3 0 5 0 7-2 1-2 2-4 2-7z m55 147l0-55c0-3-1-5-2-7-2-2-4-2-7-2l-183 0c-3 0-5 0-6 2-2 2-3 4-3 7l0 55c0 2 1 4 3 6 1 2 3 3 6 3l183 0c3 0 5-1 7-3 1-2 2-4 2-6z m55 146l0-55c0-3-1-5-3-7-1-1-3-2-6-2l-238 0c-3 0-5 1-6 2-2 2-3 4-3 7l0 55c0 3 1 5 3 6 1 2 3 3 6 3l238 0c3 0 5-1 6-3 2-1 3-3 3-6z"/>
<glyph glyph-name="sort-alpha-asc" unicode="&#57406;" d="M359 395l50 0-20 63-4 13c0 3 0 5 0 6l-2 0 0-6c0 0-1-2-1-5-1-3-2-6-3-8z m-130-294c0-3-1-5-3-7l-91-91c-2-2-5-3-7-3-2 0-4 1-7 3l-91 91c-3 3-4 6-2 10 2 4 4 6 9 6l54 0 0 393c0 3 1 5 3 6 2 2 4 3 7 3l54 0c3 0 5-1 7-3 2-1 3-3 3-6l0-393 54 0c3 0 5-1 7-3 2-2 3-4 3-6z m238-34l0-67-166 0 0 26 105 151c2 3 4 6 6 8l3 2 0 1c0 0-1 0-2-1-1-1-1-2-2-2-2 0-5-1-8-1l-67 0 0-33-34 0 0 66 162 0 0-26-105-151c-2-2-4-4-6-7l-4-4 0 0 4 0c2 1 5 1 9 1l71 0 0 34 34 0z m26 256l0-30-82 0 0 30 21 0-13 41-70 0-13-41 21 0 0-30-82 0 0 30 20 0 66 189 46 0 66-189z"/>
<glyph glyph-name="sort-alpha-desc" unicode="&#57407;" d="M359 103l50 0-20 62-4 14c0 3 0 5 0 5l-2 0 0-5c0-1-1-2-1-6-1-3-2-6-3-8z m-130-2c0-3-1-5-3-7l-91-91c-2-2-5-3-7-3-2 0-4 1-7 3l-91 91c-3 3-4 6-2 10 2 4 4 6 9 6l54 0 0 393c0 3 1 5 3 6 2 2 4 3 7 3l54 0c3 0 5-1 7-3 2-1 3-3 3-6l0-393 54 0c3 0 5-1 7-3 2-2 3-4 3-6z m264-71l0-30-82 0 0 30 21 0-13 41-70 0-13-41 21 0 0-30-82 0 0 30 20 0 66 189 46 0 66-189z m-26 329l0-66-166 0 0 25 105 151c2 4 4 6 6 8l3 3 0 1c0 0-1-1-2-2-1-1-1-1-2-1-2-1-5-1-8-1l-67 0 0-33-34 0 0 65 162 0 0-25-105-151c-2-2-4-4-6-8l-4-3 0-1 4 1c2 0 5 1 9 1l71 0 0 34 34 0z"/>
<glyph glyph-name="sort-asc" unicode="&#57408;" d="M402 311c0-5-2-9-5-13-4-4-8-5-13-5l-256 0c-5 0-9 1-13 5-3 4-5 8-5 13 0 5 2 9 5 13l128 128c4 3 8 5 13 5 5 0 9-2 13-5l128-128c3-4 5-8 5-13z"/>
<glyph glyph-name="sort-desc" unicode="&#57409;" d="M402 201c0-5-2-9-5-13l-128-128c-4-3-8-5-13-5-5 0-9 2-13 5l-128 128c-3 4-5 8-5 13 0 5 2 9 5 13 4 4 8 5 13 5l256 0c5 0 9-1 13-5 3-4 5-8 5-13z"/>
<glyph glyph-name="sort-numeric-asc" unicode="&#57410;" d="M421 137c0 12-4 23-12 33-9 10-19 15-30 15-10 0-18-3-24-10-5-7-8-16-8-27 0-11 3-20 10-27 7-8 17-11 30-11 9 0 17 2 24 7 7 6 10 12 10 20z m-174-36c0-3-1-5-3-7l-91-91c-2-2-4-3-7-3-2 0-4 1-6 3l-92 91c-3 3-3 6-2 10 2 4 5 6 9 6l55 0 0 393c0 3 1 5 2 6 2 2 4 3 7 3l55 0c2 0 5-1 6-3 2-1 3-3 3-6l0-393 55 0c2 0 5-1 6-3 2-2 3-4 3-6z m214 19c0-12-1-23-4-34-2-12-6-23-11-33-6-10-12-19-20-27-7-8-17-14-28-19-11-5-23-7-36-7-12 0-22 2-31 5-5 1-9 3-12 4l11 32c3-1 6-2 9-3 7-2 14-4 21-4 16 0 29 6 39 17 9 11 16 25 19 42l-1 0c-4-5-10-8-17-11-8-3-16-4-25-4-20 0-36 7-49 20-13 14-19 30-19 50 0 20 7 37 20 51 14 13 31 20 52 20 24 0 43-9 59-27 15-18 23-42 23-72z m-8 205l0-32-134 0 0 32 47 0 0 124c0 1 0 3 0 5 0 2 0 4 0 5l0 4-1 0-2-3c-1-2-4-5-7-9l-18-16-23 24 55 53 35 0 0-187z"/>
<glyph glyph-name="sort-numeric-desc" unicode="&#57411;" d="M421 429c0 12-4 23-12 34-9 10-19 15-30 15-10 0-18-4-24-11-5-7-8-16-8-27 0-11 3-20 10-27 7-7 17-11 30-11 9 0 17 3 24 8 7 5 10 12 10 19z m-174-328c0-3-1-5-3-7l-91-91c-2-2-4-3-7-3-2 0-4 1-6 3l-92 91c-3 3-3 6-2 10 2 4 5 6 9 6l55 0 0 393c0 3 1 5 2 6 2 2 4 3 7 3l55 0c2 0 5-1 6-3 2-1 3-3 3-6l0-393 55 0c2 0 5-1 6-3 2-2 3-4 3-6z m206-68l0-33-134 0 0 33 47 0 0 123c0 1 0 3 0 5 0 3 0 4 0 5l0 5-1 0-2-4c-1-2-4-5-7-8l-18-17-23 25 55 52 35 0 0-186z m8 380c0-12-1-24-4-35-2-11-6-22-11-32-6-11-12-20-20-28-7-8-17-14-28-18-11-5-23-7-36-7-12 0-22 1-31 4-5 2-9 3-12 4l11 33c3-2 6-3 9-3 7-3 14-4 21-4 16 0 29 5 39 17 9 11 16 25 19 41l-1 0c-4-4-10-8-17-10-8-3-16-4-25-4-20 0-36 6-49 20-13 14-19 30-19 49 0 20 7 37 20 51 14 14 31 21 52 21 24 0 43-9 59-27 15-18 23-42 23-72z"/>
<glyph glyph-name="star" unicode="&#57412;" d="M494 327c0-4-3-9-8-14l-103-101 24-143c0-1 0-3 0-5 0-4-1-8-3-10-2-3-4-5-8-5-4 0-8 2-12 4l-128 67-128-67c-4-2-8-4-12-4-4 0-7 2-9 5-2 2-3 6-3 10 0 1 0 3 1 5l24 143-104 101c-4 6-7 10-7 14 0 7 6 12 16 13l144 21 64 130c4 8 8 12 14 12 6 0 10-4 14-12l64-130 144-21c10-1 16-6 16-13z"/>
<glyph glyph-name="star-half" unicode="&#57413;" d="M366 503l0-383-129-67c-4-2-8-4-11-4-4 0-7 2-9 5-2 2-3 6-3 10 0 1 0 3 1 5l24 143-104 101c-5 6-7 10-7 14 0 7 5 12 16 13l143 21 65 130c3 8 8 12 14 12z"/>
<glyph glyph-name="star-half-o" unicode="&#57414;" d="M357 239l74 71-102 15-19 3-9 17-45 92 0-275 17-9 91-48-17 101-4 19z m129 74l-103-101 24-143c1-6 1-11-2-14-2-4-5-6-9-6-4 0-7 2-12 4l-128 67-128-67c-5-2-8-4-12-4-4 0-7 2-9 6-3 3-3 8-2 14l24 143-104 101c-6 7-8 12-6 17 2 6 7 9 15 10l144 21 64 130c4 8 8 12 14 12 5 0 10-4 14-12l64-130 144-21c8-1 13-4 15-10 2-5 0-10-7-17z"/>
<glyph glyph-name="star-o" unicode="&#57415;" d="M343 225l88 85-121 18-54 109-54-109-121-18 88-85-21-120 108 57 108-57z m151 102c0-4-3-9-8-14l-103-101 24-143c0-1 0-3 0-5 0-10-3-15-11-15-4 0-8 2-12 4l-128 67-128-67c-4-2-8-4-12-4-4 0-7 2-9 5-2 2-3 6-3 10 0 1 0 3 1 5l24 143-104 101c-4 6-7 10-7 14 0 7 6 12 16 13l144 21 64 130c4 8 8 12 14 12 6 0 10-4 14-12l64-130 144-21c10-1 16-6 16-13z"/>
<glyph glyph-name="street-view" unicode="&#57416;" d="M439 73c0-12-6-23-18-32-11-10-27-18-47-23-19-6-41-11-64-14-23-3-47-4-72-4-25 0-49 1-73 4-23 3-44 8-64 14-20 5-35 13-47 23-12 9-17 20-17 32 0 9 3 18 9 25 6 8 15 14 26 19 11 6 22 10 34 13 11 3 24 6 37 9 5 1 10 0 14-3 4-3 7-7 7-12 1-5 0-10-3-14-3-4-7-7-12-7-11-2-21-5-30-7-9-3-16-5-22-7-5-3-10-5-14-7-3-2-6-4-7-6-2-1-3-2-3-3 1-2 3-5 8-8 4-3 11-6 21-9 9-3 20-7 32-9 13-3 28-6 46-8 18-1 38-2 58-2 20 0 39 1 57 2 18 2 34 5 46 8 13 2 23 6 33 9 9 3 16 7 21 10 4 3 7 5 7 7 0 1-1 2-2 4-2 1-4 3-8 5-4 2-8 5-14 7-5 2-13 4-22 7-9 2-19 5-30 7-5 0-9 3-12 7-3 4-4 9-3 14 1 5 3 9 8 12 4 3 8 4 13 3 14-3 26-6 38-9 11-3 22-7 33-13 11-5 20-11 26-19 7-7 10-16 10-25z m-110 256l0-110c0-5-2-9-5-12-4-4-8-6-13-6l-18 0 0-110c0-5-2-9-6-12-3-4-8-6-13-6l-73 0c-5 0-9 2-13 6-3 3-5 7-5 12l0 110-18 0c-5 0-10 2-13 6-4 3-6 7-6 12l0 110c0 10 4 19 11 26 7 7 16 11 26 11l110 0c10 0 18-4 25-11 8-7 11-16 11-26z m-27 110c0-18-7-33-19-45-12-13-28-19-45-19-18 0-33 6-46 19-12 12-18 27-18 45 0 18 6 33 18 45 13 13 28 19 46 19 17 0 33-6 45-19 12-12 19-27 19-45z"/>
<glyph glyph-name="sticky-note" unicode="&#57417;" d="M329 155l0-118-265 0c-8 0-14 2-19 8-6 5-8 11-8 19l0 384c0 8 2 14 8 19 5 6 11 8 19 8l384 0c8 0 14-2 19-8 6-5 8-11 8-19l0-265-118 0c-8 0-15-3-20-8-5-5-8-12-8-20z m37-9l109 0c-3-15-9-28-19-37l-53-53c-9-10-22-16-37-19z"/>
<glyph glyph-name="sticky-note-o" unicode="&#57418;" d="M437 146l-71 0 0-71c5 2 9 4 11 7l53 53c3 2 5 6 7 11z m-80 37l82 0 0 256-366 0 0-366 256 0 0 82c0 8 3 15 8 20 5 5 12 8 20 8z m118 265l0-293c0-7-1-16-5-25-4-9-9-16-14-21l-53-53c-5-5-12-10-21-14-9-4-18-5-25-5l-293 0c-8 0-14 2-19 8-6 5-8 11-8 19l0 384c0 8 2 14 8 19 5 6 11 8 19 8l384 0c8 0 14-2 19-8 6-5 8-11 8-19z"/>
<glyph glyph-name="suitcase" unicode="&#57419;" d="M183 402l146 0 0 37-146 0z m-101 0l0-365-18 0c-18 0-33 6-45 18-13 13-19 28-19 46l0 237c0 18 6 33 19 45 12 13 27 19 45 19z m320 0l0-365-292 0 0 365 36 0 0 46c0 8 3 14 8 19 6 6 12 8 20 8l164 0c8 0 14-2 20-8 5-5 8-11 8-19l0-46z m110-64l0-237c0-18-6-33-19-46-12-12-27-18-45-18l-18 0 0 365 18 0c18 0 33-6 45-19 13-12 19-27 19-45z"/>
<glyph glyph-name="tachometer" unicode="&#57420;" d="M110 183c0 10-4 19-11 26-7 7-16 10-26 10-10 0-19-3-26-10-7-7-10-16-10-26 0-10 3-19 10-26 7-7 16-11 26-11 10 0 19 4 26 11 7 7 11 16 11 26z m55 128c0 10-4 19-11 26-7 7-16 10-26 10-10 0-19-3-26-10-7-7-11-16-11-26 0-10 4-19 11-26 7-7 16-11 26-11 10 0 19 4 26 11 7 7 11 16 11 26z m122-138l29 110c1 5 0 9-2 13-3 5-7 8-11 9-5 1-10 1-14-2-5-3-7-6-9-11l-29-109c-11-1-21-6-30-13-9-7-15-17-18-28-4-15-2-29 6-42 7-13 18-21 33-25 15-4 29-2 42 6 13 7 21 18 25 33 3 11 3 23-2 33-4 11-11 20-20 26z m188 10c0 10-3 19-10 26-7 7-16 10-26 10-10 0-19-3-26-10-7-7-11-16-11-26 0-10 4-19 11-26 7-7 16-11 26-11 10 0 19 4 26 11 7 7 10 16 10 26z m-182 183c0 10-4 18-11 26-7 7-16 10-26 10-10 0-19-3-26-10-7-8-11-16-11-26 0-10 4-19 11-26 7-7 16-11 26-11 10 0 19 4 26 11 7 7 11 16 11 26z m128-55c0 10-4 19-11 26-7 7-16 10-26 10-10 0-19-3-26-10-7-7-11-16-11-26 0-10 4-19 11-26 7-7 16-11 26-11 10 0 19 4 26 11 7 7 11 16 11 26z m91-128c0-50-13-96-40-138-4-6-9-8-16-8l-400 0c-7 0-12 2-16 8-27 42-40 88-40 138 0 35 7 68 20 99 14 32 32 59 55 82 23 23 50 41 82 55 31 13 64 20 99 20 35 0 68-7 99-20 32-14 59-32 82-55 23-23 41-50 55-82 13-31 20-64 20-99z"/>
<glyph glyph-name="tasks" unicode="&#57421;" d="M293 110l182 0 0 36-182 0z m-110 146l292 0 0 37-292 0z m183 146l109 0 0 37-109 0z m146-237l0-74c0-5-2-9-5-12-4-4-8-6-13-6l-476 0c-5 0-9 2-13 6-3 3-5 7-5 12l0 74c0 5 2 9 5 12 4 4 8 6 13 6l476 0c5 0 9-2 13-6 3-3 5-7 5-12z m0 146l0-73c0-5-2-10-5-13-4-4-8-6-13-6l-476 0c-5 0-9 2-13 6-3 3-5 8-5 13l0 73c0 5 2 9 5 13 4 3 8 5 13 5l476 0c5 0 9-2 13-5 3-4 5-8 5-13z m0 146l0-73c0-5-2-9-5-13-4-3-8-5-13-5l-476 0c-5 0-9 2-13 5-3 4-5 8-5 13l0 73c0 5 2 9 5 13 4 4 8 5 13 5l476 0c5 0 9-1 13-5 3-4 5-8 5-13z"/>
<glyph glyph-name="th" unicode="&#57422;" d="M146 155l0-54c0-8-2-15-8-20-5-5-12-8-19-8l-92 0c-7 0-14 3-19 8-5 5-8 12-8 20l0 54c0 8 3 15 8 20 5 5 12 8 19 8l92 0c7 0 14-3 19-8 6-5 8-12 8-20z m0 147l0-55c0-8-2-14-8-20-5-5-12-8-19-8l-92 0c-7 0-14 3-19 8-5 6-8 12-8 20l0 55c0 7 3 14 8 19 5 5 12 8 19 8l92 0c7 0 14-3 19-8 6-5 8-12 8-19z m183-147l0-54c0-8-3-15-8-20-5-5-12-8-19-8l-92 0c-7 0-14 3-19 8-5 5-8 12-8 20l0 54c0 8 3 15 8 20 5 5 12 8 19 8l92 0c7 0 14-3 19-8 5-5 8-12 8-20z m-183 293l0-55c0-7-2-14-8-19-5-6-12-8-19-8l-92 0c-7 0-14 2-19 8-5 5-8 12-8 19l0 55c0 8 3 14 8 19 5 6 12 8 19 8l92 0c7 0 14-2 19-8 6-5 8-11 8-19z m183-146l0-55c0-8-3-14-8-20-5-5-12-8-19-8l-92 0c-7 0-14 3-19 8-5 6-8 12-8 20l0 55c0 7 3 14 8 19 5 5 12 8 19 8l92 0c7 0 14-3 19-8 5-5 8-12 8-19z m183-147l0-54c0-8-3-15-8-20-5-5-12-8-19-8l-92 0c-7 0-14 3-19 8-6 5-8 12-8 20l0 54c0 8 2 15 8 20 5 5 12 8 19 8l92 0c7 0 14-3 19-8 5-5 8-12 8-20z m-183 293l0-55c0-7-3-14-8-19-5-6-12-8-19-8l-92 0c-7 0-14 2-19 8-5 5-8 12-8 19l0 55c0 8 3 14 8 19 5 6 12 8 19 8l92 0c7 0 14-2 19-8 5-5 8-11 8-19z m183-146l0-55c0-8-3-14-8-20-5-5-12-8-19-8l-92 0c-7 0-14 3-19 8-6 6-8 12-8 20l0 55c0 7 2 14 8 19 5 5 12 8 19 8l92 0c7 0 14-3 19-8 5-5 8-12 8-19z m0 146l0-55c0-7-3-14-8-19-5-6-12-8-19-8l-92 0c-7 0-14 2-19 8-6 5-8 12-8 19l0 55c0 8 2 14 8 19 5 6 12 8 19 8l92 0c7 0 14-2 19-8 5-5 8-11 8-19z"/>
<glyph glyph-name="th-large" unicode="&#57423;" d="M238 219l0-109c0-10-4-19-11-26-7-7-16-11-26-11l-146 0c-10 0-19 4-26 11-7 7-11 16-11 26l0 109c0 10 4 19 11 26 7 7 16 11 26 11l146 0c10 0 19-4 26-11 7-7 11-16 11-26z m0 220l0-110c0-10-4-18-11-26-7-7-16-10-26-10l-146 0c-10 0-19 3-26 10-7 8-11 16-11 26l0 110c0 10 4 18 11 26 7 7 16 10 26 10l146 0c10 0 19-3 26-10 7-8 11-16 11-26z m256-220l0-109c0-10-4-19-11-26-7-7-16-11-26-11l-146 0c-10 0-19 4-26 11-7 7-11 16-11 26l0 109c0 10 4 19 11 26 7 7 16 11 26 11l146 0c10 0 19-4 26-11 7-7 11-16 11-26z m0 220l0-110c0-10-4-18-11-26-7-7-16-10-26-10l-146 0c-10 0-19 3-26 10-7 8-11 16-11 26l0 110c0 10 4 18 11 26 7 7 16 10 26 10l146 0c10 0 19-3 26-10 7-8 11-16 11-26z"/>
<glyph glyph-name="th-list" unicode="&#57424;" d="M146 155l0-54c0-8-2-15-8-20-5-5-12-8-19-8l-92 0c-7 0-14 3-19 8-5 5-8 12-8 20l0 54c0 8 3 15 8 20 5 5 12 8 19 8l92 0c7 0 14-3 19-8 6-5 8-12 8-20z m0 147l0-55c0-8-2-14-8-20-5-5-12-8-19-8l-92 0c-7 0-14 3-19 8-5 6-8 12-8 20l0 55c0 7 3 14 8 19 5 5 12 8 19 8l92 0c7 0 14-3 19-8 6-5 8-12 8-19z m366-147l0-54c0-8-3-15-8-20-5-5-12-8-19-8l-275 0c-7 0-14 3-19 8-5 5-8 12-8 20l0 54c0 8 3 15 8 20 5 5 12 8 19 8l275 0c7 0 14-3 19-8 5-5 8-12 8-20z m-366 293l0-55c0-7-2-14-8-19-5-6-12-8-19-8l-92 0c-7 0-14 2-19 8-5 5-8 12-8 19l0 55c0 8 3 14 8 19 5 6 12 8 19 8l92 0c7 0 14-2 19-8 6-5 8-11 8-19z m366-146l0-55c0-8-3-14-8-20-5-5-12-8-19-8l-275 0c-7 0-14 3-19 8-5 6-8 12-8 20l0 55c0 7 3 14 8 19 5 5 12 8 19 8l275 0c7 0 14-3 19-8 5-5 8-12 8-19z m0 146l0-55c0-7-3-14-8-19-5-6-12-8-19-8l-275 0c-7 0-14 2-19 8-5 5-8 12-8 19l0 55c0 8 3 14 8 19 5 6 12 8 19 8l275 0c7 0 14-2 19-8 5-5 8-11 8-19z"/>
<glyph glyph-name="thumb-tack" unicode="&#57425;" d="M229 265l0 128c0 3-1 5-3 7-2 1-4 2-7 2-2 0-4-1-6-2-2-2-3-4-3-7l0-128c0-3 1-5 3-6 2-2 4-3 6-3 3 0 5 1 7 3 2 1 3 3 3 6z m192-100c0-5-2-10-6-13-3-4-8-6-13-6l-122 0-15-138c0-2-1-4-3-6-1-1-3-2-6-2l0 0c-5 0-8 3-9 8l-22 138-115 0c-5 0-10 2-13 6-4 3-6 8-6 13 0 23 8 44 23 63 15 19 32 28 51 28l0 146c-10 0-19 4-26 11-7 7-11 16-11 26 0 10 4 18 11 26 7 7 16 10 26 10l182 0c10 0 19-3 26-10 7-8 11-16 11-26 0-10-4-19-11-26-7-7-16-11-26-11l0-146c19 0 36-9 51-28 15-19 23-40 23-63z"/>
<glyph glyph-name="times" unicode="&#57426;" d="M426 134c0-7-3-14-8-19l-39-39c-5-5-12-8-20-8-7 0-14 3-19 8l-84 84-84-84c-5-5-12-8-19-8-8 0-15 3-20 8l-39 39c-5 5-8 12-8 19 0 8 3 14 8 20l84 84-84 84c-5 5-8 12-8 19 0 8 3 14 8 20l39 38c5 6 12 8 20 8 7 0 14-2 19-8l84-84 84 84c5 6 12 8 19 8 8 0 15-2 20-8l39-38c5-6 8-12 8-20 0-7-3-14-8-19l-84-84 84-84c5-6 8-12 8-20z"/>
<glyph glyph-name="times-circle" unicode="&#57427;" d="M365 191c0 5-2 10-6 13l-51 52 51 52c4 3 6 8 6 13 0 5-2 9-6 13l-25 25c-4 4-8 6-13 6-5 0-10-2-13-6l-52-51-52 51c-3 4-8 6-13 6-5 0-9-2-13-6l-25-25c-4-4-6-8-6-13 0-5 2-10 6-13l51-52-51-52c-4-3-6-8-6-13 0-5 2-9 6-13l25-25c4-4 8-6 13-6 5 0 10 2 13 6l52 51 52-51c3-4 8-6 13-6 5 0 9 2 13 6l25 25c4 4 6 8 6 13z m110 65c0-40-9-77-29-110-20-34-46-60-80-80-33-20-70-29-110-29-40 0-77 9-110 29-34 20-60 46-80 80-20 33-29 70-29 110 0 40 9 77 29 110 20 34 46 60 80 80 33 20 70 29 110 29 40 0 77-9 110-29 34-20 60-46 80-80 20-33 29-70 29-110z"/>
<glyph glyph-name="times-circle-o" unicode="&#57428;" d="M350 204l-42-42c-2-2-4-3-6-3-3 0-5 1-7 3l-39 39-39-39c-2-2-4-3-7-3-2 0-4 1-6 3l-42 42c-2 2-3 4-3 6 0 3 1 5 3 7l39 39-39 39c-2 2-3 4-3 7 0 2 1 4 3 6l42 42c2 2 4 3 6 3 3 0 5-1 7-3l39-39 39 39c2 2 4 3 7 3 2 0 4-1 6-3l42-42c2-2 3-4 3-6 0-3-1-5-3-7l-39-39 39-39c2-2 3-4 3-7 0-2-1-4-3-6z m61 52c0 28-7 54-20 78-14 24-33 43-57 57-24 13-50 20-78 20-28 0-54-7-78-20-24-14-43-33-57-57-13-24-20-50-20-78 0-28 7-54 20-78 14-24 33-43 57-57 24-13 50-20 78-20 28 0 54 7 78 20 24 14 43 33 57 57 13 24 20 50 20 78z m64 0c0-40-9-77-29-110-20-34-46-60-80-80-33-20-70-29-110-29-40 0-77 9-110 29-34 20-60 46-80 80-20 33-29 70-29 110 0 40 9 77 29 110 20 34 46 60 80 80 33 20 70 29 110 29 40 0 77-9 110-29 34-20 60-46 80-80 20-33 29-70 29-110z"/>
<glyph glyph-name="trash" unicode="&#57429;" d="M201 119l0 201c0 3-1 5-2 7-2 1-4 2-7 2l-18 0c-3 0-5-1-7-2-2-2-2-4-2-7l0-201c0-3 0-5 2-7 2-1 4-2 7-2l18 0c3 0 5 1 7 2 1 2 2 4 2 7z m73 0l0 201c0 3-1 5-2 7-2 1-4 2-7 2l-18 0c-3 0-5-1-7-2-1-2-2-4-2-7l0-201c0-3 1-5 2-7 2-1 4-2 7-2l18 0c3 0 5 1 7 2 1 2 2 4 2 7z m73 0l0 201c0 3 0 5-2 7-2 1-4 2-7 2l-18 0c-3 0-5-1-7-2-1-2-2-4-2-7l0-201c0-3 1-5 2-7 2-1 4-2 7-2l18 0c3 0 5 1 7 2 2 2 2 4 2 7z m-155 283l128 0-14 34c-1 1-3 2-5 3l-90 0c-2-1-4-2-5-3z m265-9l0-18c0-3-1-5-2-7-2-1-4-2-7-2l-27 0 0-271c0-16-5-30-14-41-9-12-20-17-32-17l-238 0c-12 0-23 5-32 16-9 11-14 25-14 41l0 272-27 0c-3 0-5 1-7 2-1 2-2 4-2 7l0 18c0 3 1 5 2 7 2 1 4 2 7 2l88 0 20 48c3 7 8 13 16 18 7 5 15 7 22 7l92 0c7 0 15-2 22-7 8-5 13-11 16-18l20-48 88 0c3 0 5-1 7-2 1-2 2-4 2-7z"/>
<glyph glyph-name="trash-o" unicode="&#57430;" d="M201 302l0-165c0-3-1-5-2-6-2-2-4-3-7-3l-18 0c-3 0-5 1-7 3-2 1-2 3-2 6l0 165c0 2 0 5 2 6 2 2 4 3 7 3l18 0c3 0 5-1 7-3 1-1 2-4 2-6z m73 0l0-165c0-3-1-5-2-6-2-2-4-3-7-3l-18 0c-3 0-5 1-7 3-1 1-2 3-2 6l0 165c0 2 1 5 2 6 2 2 4 3 7 3l18 0c3 0 5-1 7-3 1-1 2-4 2-6z m73 0l0-165c0-3 0-5-2-6-2-2-4-3-7-3l-18 0c-3 0-5 1-7 3-1 1-2 3-2 6l0 165c0 2 1 5 2 6 2 2 4 3 7 3l18 0c3 0 5-1 7-3 2-1 2-4 2-6z m37-207l0 271-256 0 0-271c0-4 1-8 2-12 1-3 3-6 4-7 2-2 3-3 3-3l238 0c0 0 1 1 3 3 1 1 3 4 4 7 1 4 2 8 2 12z m-192 307l128 0-14 34c-1 1-3 2-5 3l-90 0c-2-1-4-2-5-3z m265-9l0-18c0-3-1-5-2-7-2-1-4-2-7-2l-27 0 0-271c0-16-5-30-14-41-9-12-20-17-32-17l-238 0c-12 0-23 5-32 16-9 11-14 25-14 41l0 272-27 0c-3 0-5 1-7 2-1 2-2 4-2 7l0 18c0 3 1 5 2 7 2 1 4 2 7 2l88 0 20 48c3 7 8 13 16 18 7 5 15 7 22 7l92 0c7 0 15-2 22-7 8-5 13-11 16-18l20-48 88 0c3 0 5-1 7-2 1-2 2-4 2-7z"/>
<glyph glyph-name="user" unicode="&#57431;" d="M457 111c0-23-7-41-21-55-14-13-32-19-55-19l-250 0c-23 0-41 6-55 19-14 14-21 32-21 55 0 10 0 20 1 29 1 10 2 20 4 31 2 11 4 22 7 31 3 10 8 19 13 28 5 9 11 17 17 23 7 7 15 12 25 16 9 3 20 5 32 5 1 0 5-2 12-6 6-4 13-9 21-14 8-5 18-9 31-13 13-4 25-6 38-6 13 0 25 2 38 6 13 4 23 8 31 13 8 5 15 10 21 14 7 4 11 6 12 6 12 0 23-2 32-5 10-4 18-9 25-16 6-6 12-14 17-23 5-9 10-18 13-28 3-9 5-20 7-31 2-11 3-21 4-31 1-9 1-19 1-29z m-91 255c0-31-11-56-32-78-22-21-48-32-78-32-30 0-56 11-78 32-21 22-32 47-32 78 0 30 11 56 32 77 22 22 48 32 78 32 30 0 56-10 78-32 21-21 32-47 32-77z"/>
<glyph glyph-name="unlock" unicode="&#57432;" d="M494 347l0-73c0-5-2-9-6-13-3-3-8-5-13-5l-18 0c-5 0-9 2-13 5-3 4-5 8-5 13l0 73c0 21-7 38-22 52-14 14-31 22-51 22-20 0-38-8-52-22-14-14-21-31-21-52l0-54 27 0c8 0 14-3 19-8 6-6 8-12 8-20l0-164c0-8-2-15-8-20-5-5-11-8-19-8l-274 0c-8 0-14 3-20 8-5 5-8 12-8 20l0 164c0 8 3 14 8 20 6 5 12 8 20 8l192 0 0 54c0 36 12 66 37 91 25 25 55 37 91 37 35 0 65-12 90-37 25-25 38-55 38-91z"/>
<glyph glyph-name="unlock-alt" unicode="&#57433;" d="M393 293c8 0 14-3 20-8 5-6 8-12 8-20l0-164c0-8-3-15-8-20-6-5-12-8-20-8l-274 0c-8 0-14 3-20 8-5 5-8 12-8 20l0 164c0 8 3 14 8 20 6 5 12 8 20 8l9 0 0 91c0 35 13 65 38 90 25 25 55 38 90 38 35 0 65-13 90-38 25-25 38-55 38-90 0-5-2-9-5-13-4-3-8-5-13-5l-19 0c-5 0-9 2-12 5-4 4-6 8-6 13 0 20-7 37-21 52-15 14-32 21-52 21-20 0-37-7-52-21-14-15-21-32-21-52l0-91z"/>
<glyph glyph-name="user-plus" unicode="&#57434;" d="M165 256c-31 0-57 11-78 32-21 22-32 47-32 78 0 30 11 56 32 77 21 22 47 32 78 32 30 0 56-10 77-32 22-21 32-47 32-77 0-31-10-56-32-78-21-21-47-32-77-32z m274-37l100 0c3 0 5 0 7-2 2-2 3-4 3-7l0-55c0-2-1-4-3-6-2-2-4-3-7-3l-100 0 0-100c0-3-1-5-3-7-2-2-4-2-6-2l-55 0c-3 0-5 0-7 2-1 2-2 4-2 7l0 100-101 0c-2 0-4 1-6 3-2 2-3 4-3 6l0 55c0 3 1 5 3 7 2 2 4 2 6 2l101 0 0 101c0 2 1 5 2 6 2 2 4 3 7 3l55 0c2 0 4-1 6-3 2-1 3-4 3-6z m-210-64c0-9 3-18 10-25 8-8 16-11 26-11l73 0 0-68c-13-10-29-14-49-14l-249 0c-23 0-42 6-56 19-14 13-21 32-21 55 0 10 1 20 1 29 1 10 2 20 4 31 2 11 5 22 8 31 3 10 7 19 12 28 5 9 11 17 18 23 7 7 15 12 24 16 10 3 21 5 32 5 4 0 8-1 11-5 15-11 30-20 45-26 14-6 30-8 47-8 17 0 32 2 47 8 14 6 29 15 44 26 4 4 7 5 11 5 25 0 46-9 62-27l-64 0c-10 0-18-4-26-11-7-7-10-16-10-26z"/>
<glyph glyph-name="user-times" unicode="&#57435;" d="M165 256c-31 0-57 11-78 32-21 22-32 47-32 78 0 30 11 56 32 77 21 22 47 32 78 32 30 0 56-10 77-32 22-21 32-47 32-77 0-31-10-56-32-78-21-21-47-32-77-32z m307-91l71-72c2-1 3-3 3-6 0-3-1-5-3-6l-38-39c-2-2-4-3-7-3-2 0-5 1-6 3l-71 71-72-71c-1-2-3-3-6-3-3 0-5 1-6 3l-39 39c-2 1-3 3-3 6 0 3 1 5 3 6l71 72-71 71c-2 1-3 4-3 6 0 3 1 5 3 7l39 38c1 2 3 3 6 3 3 0 5-1 6-3l72-71 71 71c1 2 4 3 6 3 3 0 5-1 7-3l38-38c2-2 3-4 3-7 0-2-1-5-3-6z m-142 0l-52-52c-7-7-10-16-10-26 0-10 3-19 10-26l24-24c-4 0-8 0-13 0l-249 0c-23 0-42 6-56 19-14 13-21 32-21 55 0 10 1 20 1 29 1 10 2 20 4 31 2 11 5 22 8 31 3 10 7 19 12 28 5 9 11 17 18 23 7 7 15 12 24 16 10 3 21 5 32 5 4 0 8-1 11-5 30-23 60-34 92-34 31 0 61 11 91 34 4 4 7 5 11 5 5 0 11 0 16-1-5-6-9-10-12-15-2-4-3-9-3-16 0-10 3-19 10-26z"/>
<glyph glyph-name="users" unicode="&#57436;" d="M151 256c-31-1-56-13-76-37l-38 0c-15 0-29 4-39 12-11 8-16 19-16 34 0 67 12 101 35 101 1 0 5-2 13-6 7-4 16-8 27-12 12-5 23-7 34-7 13 0 26 3 38 7-1-7-1-13-1-19 0-26 8-51 23-73z m306-182c0-23-7-41-21-54-14-13-32-20-55-20l-250 0c-23 0-41 7-55 20-14 13-21 31-21 54 0 10 0 20 1 30 1 9 2 20 4 31 2 11 4 21 7 31 3 9 8 19 13 28 5 9 11 16 17 23 7 6 15 11 25 15 9 4 20 6 32 6 2 0 6-2 12-6 6-5 13-9 21-14 7-5 18-10 30-14 13-4 26-6 39-6 13 0 26 2 39 6 12 4 23 9 30 14 8 5 15 9 21 14 6 4 10 6 12 6 12 0 23-2 32-6 10-4 18-9 25-15 6-7 12-14 17-23 5-9 10-19 13-28 3-10 5-20 7-31 2-11 3-22 4-31 1-10 1-20 1-30z m-292 365c0-20-8-38-22-52-14-14-31-21-52-21-20 0-37 7-51 21-15 14-22 32-22 52 0 20 7 37 22 52 14 14 31 21 51 21 21 0 38-7 52-21 14-15 22-32 22-52z m201-110c0-30-11-56-32-77-22-22-48-33-78-33-30 0-56 11-78 33-21 21-32 47-32 77 0 30 11 56 32 78 22 21 48 32 78 32 30 0 56-11 78-32 21-22 32-48 32-78z m164-64c0-15-5-26-16-34-10-8-24-12-39-12l-38 0c-20 24-45 36-76 37 15 22 23 47 23 73 0 6 0 12-1 19 12-4 25-7 38-7 11 0 22 2 34 7 11 4 20 8 27 12 8 4 12 6 13 6 23 0 35-34 35-101z m-36 174c0-20-7-38-22-52-14-14-31-21-51-21-21 0-38 7-52 21-14 14-22 32-22 52 0 20 8 37 22 52 14 14 31 21 52 21 20 0 37-7 51-21 15-15 22-32 22-52z"/>
<glyph glyph-name="briefcase-1" unicode="&#57439;" d="M448 416l-128 0 0 33c0 17-14 31-31 31l-66 0c-17 0-31-14-31-31l0-33-128 0c-18 0-32-14-32-32l0-256c0-18 14-32 32-32l384 0c18 0 32 14 32 32l0 256c0 18-14 32-32 32z m-224 24c0 4 4 8 8 8l48 0c4 0 8-4 8-8l0-24-64 0z m224-184l-160 0 0-32-64 0 0 32-160 0 0 128 32 0 0-96 320 0 0 96 32 0z"/>
<glyph glyph-name="calendar-1" unicode="&#57440;" d="M352 256l-32 0 0-64 32 0z m-64 0l-32 0 0-64 32 0z m64 96l-32 0 0-64 32 0z m64-96l-32 0 0-64 32 0z m-128-96l-32 0 0-64 32 0z m96 352l-32 0 0-64 32 0z m-256 0l-32 0 0-64 32 0z m288-160l-32 0 0-64 32 0z m-128 0l-32 0 0-64 32 0z m-128-192l-32 0 0-64 32 0z m-64 96l-32 0 0-64 32 0z m64 0l-32 0 0-64 32 0z m256 224l0-64-96 0 0 64-160 0 0-64-96 0 0 64-64 0 0-448 480 0 0 448z m32-416l-416 0 0 320 416 0z m-352 96l-32 0 0-64 32 0z m128 192l-32 0 0-64 32 0z m0-192l-32 0 0-64 32 0z m-64 192l-32 0 0-64 32 0z m64-96l-32 0 0-64 32 0z m128-96l-32 0 0-64 32 0z"/>
<glyph glyph-name="chevron-down-1" unicode="&#57441;" d="M352 352l-96-96-96 96-64-64 160-160 160 160z"/>
<glyph glyph-name="chevron-left-1" unicode="&#57442;" d="M368 352l-64 64-160-160 160-160 64 64-96 96z"/>
<glyph glyph-name="chevron-right-1" unicode="&#57443;" d="M208 416l-64-64 96-96-96-96 64-64 160 160z"/>
<glyph glyph-name="chevron-up-1" unicode="&#57444;" d="M256 384l-160-160 64-64 96 96 96-96 64 64z"/>
<glyph glyph-name="comment-1" unicode="&#57445;" d="M416 448l-320 0c-31 0-64-32-64-64l0-192c0-64 64-64 64-64l32 0 0-128 128 128c0 0 129 0 160 0 31 0 64 34 64 64l0 192c0 31-32 64-64 64z"/>
<glyph glyph-name="comment-discussion" unicode="&#57446;" d="M160 256c0 32 0 96 0 96 0 0-80 0-96 0-16 0-32-16-32-32 0-16 0-144 0-160 0-16 16-32 32-32 16 0 32 0 32 0l0-96 97 96c0 0 81 0 96 0 15 0 31 16 31 32 0 16 0 32 0 32 0 0-64 0-96 0-32 0-64 32-64 64z m288 192c-16 0-208 0-224 0-16 0-32-16-32-32 0-16 0-144 0-160 0-16 16-32 32-32 16 0 95 0 95 0l97-96 0 96c0 0 16 0 32 0 16 0 32 16 32 32 0 16 0 144 0 160 0 16-16 32-32 32z"/>
<glyph glyph-name="dashboard" unicode="&#57447;" d="M256 280c-31 0-56-25-56-56 0-31 25-56 56-56 31 0 56 25 56 56 0 4-1 8-2 12 41 48 104 122 138 164 12 14-1 28-16 16-43-35-116-97-163-138-4 1-9 2-13 2z m16 104c0 9-7 16-16 16-9 0-16-7-16-16 0-9 7-16 16-16 9 0 16 7 16 16z m96-128c0-9 7-16 16-16 9 0 16 7 16 16 0 9-7 16-16 16-9 0-16-7-16-16z m-176 128c-9 0-16-7-16-16 0-9 7-16 16-16 9 0 16 7 16 16 0 9-7 16-16 16z m-32-64c0 9-7 16-16 16-9 0-16-7-16-16 0-9 7-16 16-16 9 0 16 7 16 16z m-48-64c0-9 7-16 16-16 9 0 16 7 16 16 0 9-7 16-16 16-9 0-16-7-16-16z m224 112c0 9-7 16-16 16-9 0-16-7-16-16 0-9 7-16 16-16 9 0 16 7 16 16z m108-24l-34-45c4-14 6-28 6-43 0-88-72-160-160-160-88 0-160 72-160 160 0 88 72 160 160 160 33 0 64-10 89-27l40 30c-36 28-80 45-129 45-115 0-208-93-208-208 0-115 93-208 208-208 115 0 208 93 208 208 0 31-7 61-20 88z"/>
<glyph glyph-name="database-1" unicode="&#57448;" d="M256 32c-106 0-192 29-192 64 0 19 0 40 0 64 0 6 3 11 7 16 21-28 96-48 185-48 89 0 164 20 185 48 4-5 7-10 7-16 0-19 0-38 0-64 0-35-86-64-192-64z m0 128c-106 0-192 29-192 64 0 19 0 40 0 64 0 3 1 7 3 10 1 2 2 4 4 6 21-28 96-48 185-48 89 0 164 20 185 48 2-2 3-4 4-6 2-3 3-7 3-10 0-19 0-38 0-64 0-35-86-64-192-64z m0 128c-106 0-192 29-192 64 0 10 0 21 0 32 0 10 0 21 0 32 0 35 86 64 192 64 106 0 192-29 192-64 0-10 0-21 0-32 0-10 0-20 0-32 0-35-86-64-192-64z m0 160c-71 0-128-14-128-32 0-18 57-32 128-32 71 0 128 14 128 32 0 18-57 32-128 32z"/>
<glyph glyph-name="device-camera" unicode="&#57449;" d="M256 320c-35 0-64-29-64-64 0-35 29-64 64-64 3 0 6 0 8 1-23 3-40 23-40 47 0 27 21 48 48 48 24 0 44-17 47-40 1 2 1 5 1 8 0 35-29 64-64 64z m192 64l-64 0-64 64-128 0-64-64-64 0c-18 0-32-14-32-32l0-224c0-18 14-32 32-32l384 0c18 0 32 14 32 32l0 224c0 18-14 32-32 32z m-240 32l96 0 32-32-160 0z m-128-288c-9 0-16 7-16 16l0 144 32 0 0 32-32 0 0 16c0 9 7 16 16 16l91 0c-2-2-4-4-6-5-49-50-49-132 0-182l38-37z m176 32c-53 0-96 43-96 96 0 53 43 96 96 96 53 0 96-43 96-96 0-53-43-96-96-96z m160 112l-75 80 75 0z"/>
<glyph glyph-name="device-desktop" unicode="&#57450;" d="M480 480c-16 0-432 0-448 0-16 0-32-16-32-32 0-16 0-272 0-288 0-16 16-32 32-32 16 0 160 0 160 0 0 0-96-32-96-64 0-16 16-32 32-32 16 0 240 0 256 0 16 0 32 16 32 32 0 32-96 64-96 64 0 0 144 0 160 0 16 0 32 16 32 32 0 16 0 272 0 288 0 16-16 32-32 32z m0-320l-448 0 0 288 448 0z m-32 256l-96 0c-192-32-271-150-288-192l0-32 384 0z"/>
<glyph glyph-name="device-mobile" unicode="&#57451;" d="M384 512l-256 0c-18 0-32-14-32-32l0-448c0-18 14-32 32-32l256 0c18 0 32 14 32 32l0 448c0 18-14 32-32 32z m-144-32l32 0c9 0 16-7 16-16 0-9-7-16-16-16l-32 0c-9 0-16 7-16 16 0 9 7 16 16 16z m32-448l-32 0c-9 0-16 7-16 16 0 9 7 16 16 16l32 0c9 0 16-7 16-16 0-9-7-16-16-16z m112 64l-256 0 0 320 256 0z"/>
<glyph glyph-name="diff" unicode="&#57452;" d="M256 384l-64 0 0-64-64 0 0-64 64 0 0-64 64 0 0 64 64 0 0 64-64 0z m-128-320l192 0 0 64-192 0z m224 448l-256 0 0-32 240 0 112-112 0-304 32 0 0 320z m-320-64l0-448 384 0 0 352-96 96z m352-416l-320 0 0 384 240 0 80-80z"/>
<glyph glyph-name="diff-added" unicode="&#57453;" d="M288 352l-64 0 0-64-64 0 0-64 64 0 0-64 64 0 0 64 64 0 0 64-64 0z m160 128c-16 0-368 0-384 0-16 0-32-16-32-32 0-16 0-368 0-384 0-16 16-32 32-32 16 0 368 0 384 0 16 0 32 16 32 32 0 16 0 368 0 384 0 16-16 32-32 32z m-32-368c0-8-8-16-16-16-7 0-279 0-288 0-9 0-16 6-16 16 0 8 0 280 0 288 0 8 8 16 16 16 8 0 281 0 288 0 8 0 16-8 16-16 0-8 0-280 0-288z"/>
<glyph glyph-name="diff-ignored" unicode="&#57454;" d="M448 480l-384 0c-16 0-32-16-32-32l0-384c0-16 16-32 32-32l384 0c16 0 32 16 32 32l0 384c0 16-16 32-32 32z m-32-368c0-8-8-16-16-16l-288 0c-9 0-16 6-16 16l0 288c0 8 8 16 16 16l288 0c8 0 16-8 16-16z m-256 97l0-49 49 0 143 143 0 49-49 0z"/>
<glyph glyph-name="file-text-1" unicode="&#57455;" d="M288 384l-160 0 0-32 160 0z m64 96l-288 0 0-448 384 0 0 352z m64-416l-320 0 0 384 224 0 96-96z m-288 64l256 0 0 32-256 0z m0 64l256 0 0 32-256 0z m0 64l256 0 0 32-256 0z"/>
<glyph glyph-name="gear" unicode="&#57456;" d="M256 337c-45 0-81-36-81-81 0-45 36-81 81-81 45 0 81 36 81 81 0 45-36 81-81 81z m162-128l-14-35 26-51 3-7-36-36-59 28-35-14-18-55-2-7-51 0-22 62-36 14-51-26-7-3-36 36 28 59-14 35-55 18-7 2 0 51 62 22 14 36-26 51-3 7 36 36 59-28 35 14 18 55 2 7 51 0 22-62 36-14 51 26 7 3 36-36-28-59 14-35 55-18 7-2 0-51z"/>
<glyph glyph-name="gist-secret" unicode="&#57457;" d="M129 160l64-96-128 0-33 128 129 32z m224 64l32-64-64-96 128 0 32 128z m-42 0l-108 0 22-51-32-109 128 0-32 109z m42 96l-192 0-64-32 320 0z m-32 128l-64-32-64 32-32-96 192 0z"/>
<glyph glyph-name="graph" unicode="&#57458;" d="M352 384l-96 0 0-320 96 0z m128-96l-96 0 0-224 96 0z m-448-256l0 64 32 0 0 32-32 0 0 64 32 0 0 32-32 0 0 64 32 0 0 32-32 0 0 64 32 0 0 32-32 0 0 64 32 0 0 32-64 0 0-512 512 0 0 32z m192 192l-96 0 0-160 96 0z"/>
<glyph glyph-name="globe" unicode="&#57459;" d="M256 448c-106 0-192-86-192-192 0-106 86-192 192-192 13 0 26 1 38 4-5 2-6 20-1 30 6 11 23 40 6 49-17 10-12 14-23 25-10 11-6 13-6 16-3 9 10 24 10 26 1 1 1 7 1 8-1 2-8 7-10 7-2 0-3-3-5-3-3-1-14 7-17 8-2 2-3 7-7 10-3 4-4 1-9 3-5 2-22 8-35 13-13 6-14 13-14 18 0 6-8 13-12 18-3 6-4 13-5 12-2-2 7-22 5-22-1-1-4 5-8 10-3 5 4 2-8 26-12 24 4 36 5 48 1 12 10-5 5 3-5 8 0 25-3 31-4 6-25-7-25-7 0 6 18 16 31 25 14 9 22 2 32-1 11-4 11-3 8 1-4 3 1 5 10 3 8-1 10-11 23-10 12 1 1-2 3-5 1-4-2-3-11-9-8-6 1-6 15-16 15-11 10 7 9 15-2 8 11 1 11 1 9-6 7 0 13-2 7-2 25-17 25-17-22-12-8-14-5-16 4-3-7-9-7-9-5 5-6 0-9-1-3-2 0-6 0-6-16-3-12-19-12-23 0-4-10-10-12-16-3-5 6-18 2-18-5-1-10 18-36 11-8-2-26-11-17-30 10-18 25 5 31 3 5-3-2-15-1-15 1 0 15 0 16-16 1-16 21-15 25-15 4-1 19 11 21 12 2 1 10 8 28-3 18-10 27-9 33-13 7-4 2-13 8-16 6-2 29 1 35-8 6-10-24-58-33-63-10-5-14-17-23-25-10-8-23-17-35-25-11-6-13-18-18-21 86 19 150 95 150 187 0 106-86 192-192 192z m45-180c-3-1-8-6-21 2-14 8-23 6-24 8 0 0-1 3 5 3 12 2 27-11 30-11 3 0 5 4 11 2 6-2 2-3-1-4z m-63 161c-1 1 1 2 3 4 1 1 0 3 1 4 3 3 17 6 14-1-3-8-16-9-18-7z m34-25c-5 1-16 2-14 4 8 8-3 10-10 11-6 0-9 4-6 4 4 1 17 0 19-2 3-2 15-7 15-10 1-4 0-7-4-7z m40 2c-3-3-22 11-26 14-16 13-24 9-27 11-4 2-2 5 3 10 5 4 19-2 27-3 8-1 18-7 18-15 0-7 9-14 5-17z"/>
<glyph glyph-name="heart-1" unicode="&#57460;" d="M256 80c200 157 192 212 192 256 0 43-36 96-96 96-60 0-96-64-96-64 0 0-36 64-96 64-60 0-96-53-96-96 0-44-7-99 192-256z"/>
<glyph glyph-name="home-1" unicode="&#57461;" d="M96 224l32-192 96 0 0 160 64 0 0-160 96 0 32 192-160 160z m320 96l0 128-64 0 0-64-96 96-256-256 64 0 192 192 192-192 64 0z"/>
<glyph glyph-name="issue-opened" unicode="&#57462;" d="M256 480c-124 0-224-100-224-224 0-124 100-224 224-224 124 0 224 100 224 224 0 124-100 224-224 224z m0-384c-88 0-160 72-160 160 0 88 72 160 160 160 88 0 160-72 160-160 0-88-72-160-160-160z m-32 32l64 0 0 64-64 0z m0 96l64 0 0 160-64 0z"/>
<glyph glyph-name="file-pdf" unicode="&#57463;" d="M352 480l-288 0 0-448 384 0 0 352z m-256-32l128 0c-7-2-14-8-17-21-7-25-4-66 7-105-12-41-61-138-64-144-8-3-33-12-54-30z m142-154c28-75 47-75 67-84-42-6-74-11-116-29-2-3 38 73 49 113z m178-230l-320 0 0 0c0 0 1 0 1 0 17 0 42 10 90 91 19 8 36 14 39 15 30 7 63 13 94 16 27-13 64-23 84-24 5 0 8 1 12 1z m0 155c-12 8-27 13-45 13-12 0-25-1-39-2-13 6-46 16-73 95 8 52 6 87 6 87 3 26-12 36-26 36 0 0 0 0 0 0l81 0 96-96z"/>
<glyph glyph-name="cloud-download-1" unicode="&#57464;" d="M416 352c-4 0-9-1-13-1-24 57-81 97-147 97-66 0-123-40-147-97-4 0-9 1-13 1-53 0-96-43-96-96 0-53 43-96 96-96 10 0 20 2 29 5 17-19 41-31 67-35l0 32c-25 6-46 22-56 44-11-9-25-14-40-14-35 0-64 29-64 64 0 35 29 64 64 64 13 0 24-4 34-10 11 60 63 106 126 106 63 0 115-46 125-106 10 6 22 10 35 10 35 0 64-29 64-64 0-35-29-64-64-64-5 0-10 1-15 2-14-21-38-34-65-34-6 0-11 1-16 2l0-32c5-1 11-2 16-2 31 0 58 12 78 32 1 0 1 0 2 0 53 0 96 43 96 96 0 53-43 96-96 96z m-128-96l-64 0 0-160-64 0 96-96 96 96-64 0z"/>
<glyph glyph-name="cloud-upload-1" unicode="&#57465;" d="M256 320l-96-96 64 0 0-160 64 0 0 160 64 0z m160 32c-4 0-9-1-13-1-24 57-81 97-147 97-66 0-123-40-147-97-4 0-9 1-13 1-53 0-96-43-96-96 0-53 43-96 96-96 10 0 20 2 29 5 17-19 41-31 67-35l0 32c-25 6-46 22-56 44-11-9-25-14-40-14-35 0-64 29-64 64 0 35 29 64 64 64 13 0 24-4 34-10 11 60 63 106 126 106 63 0 115-46 125-106 10 6 22 10 35 10 35 0 64-29 64-64 0-35-29-64-64-64-5 0-10 1-15 2-14-21-38-34-65-34-6 0-11 1-16 2l0-32c5-1 11-2 16-2 31 0 58 12 79 32 0 0 0 0 1 0 53 0 96 43 96 96 0 53-43 96-96 96z"/>
<glyph glyph-name="code-1" unicode="&#57466;" d="M336 416l-48-48 112-112-112-112 48-48 144 160z m-160 0l-144-160 144-160 48 48-112 112 112 112z"/>
<glyph glyph-name="check-1" unicode="&#57467;" d="M384 416l-192-192-64 64-64-64 128-128 256 256z"/>
<glyph glyph-name="checklist" unicode="&#57468;" d="M445 254l-25 25c-3 3-9 3-12 0l-52-53-60-60-47 47c-3 3-8 3-12 0l-24-25c-4-4-4-9 0-12l52-52 9-9 16-16c3-4 8-4 12 0l24 25 119 118c3 3 3 9 0 12z m-266-32l25 24c21 22 58 22 79 0l13-12 57 54 0 160-288 0 0-352 160 0-46 46c-22 22-22 58 0 80z m-18 194l160 0 0-32-160 0z m0-64l160 0 0-32-160 0z m-32-96l-32 0 0 32 32 0z m0 64l-32 0 0 32 32 0z m0 64l-32 0 0 32 32 0z m32-96l32 0 0-32-32 0z"/>
<glyph glyph-name="circle-slash" unicode="&#57469;" d="M256 416c-88 0-160-72-160-160 0-88 72-160 160-160 88 0 160 72 160 160 0 88-72 160-160 160z m0-64c14 0 27-3 39-8l-127-127c-5 12-8 25-8 39 0 53 43 96 96 96z m0-192c-14 0-27 3-39 9l127 126c5-12 8-25 8-39 0-53-43-96-96-96z"/>
<glyph glyph-name="location" unicode="&#57470;" d="M256 512c-88 0-160-72-160-160 0-89 80-208 160-352 80 144 160 263 160 352 0 88-71 160-160 160z m0-224c-35 0-64 28-64 64 0 35 29 64 64 64 36 0 64-29 64-64 0-36-28-64-64-64z"/>
<glyph glyph-name="mail" unicode="&#57471;" d="M32 416l0-320 448 0 0 320z m384-32l-160-132-160 132z m-352-32l126-96-126-96z m32-224l127 103 33-25 33 25 127-103z m352 32l-126 96 126 96z"/>
<glyph glyph-name="mail-read" unicode="&#57472;" d="M320 320l-160 0 0-32 160 0z m-96 64l-64 0 0-32 64 0z m192 14l0 50-70 0-90 64-90-64-70 0 0-50-64-46 0-320 448 0 0 320z m-288 18l256 0 0-122-128-106-128 106z m-64-128l126-96-126-96z m32-224l127 103 33-25 33 25 127-103z m352 32l-126 96 126 96z"/>
<glyph glyph-name="organization" unicode="&#57473;" d="M416 320l-320 0c-35 0-64-29-64-64l0-32c0-24 13-44 32-55l0-105 128 0 0-64 128 0 0 64 128 0 0 105c19 11 32 31 32 55l0 32c0 35-29 64-64 64z m-256-224l-64 0 0 128-32 0 0 32c0 18 14 32 32 32l41 0c-6-9-9-20-9-32l0-64c0-24 13-44 32-55z m160 64l0 64-32 0 0-192-64 0 0 192-32 0 0-64c-18 0-32 14-32 32l0 64c0 18 14 32 32 32l128 0c18 0 32-14 32-32l0-64c0-18-14-32-32-32z m128 64l-32 0 0-128-64 0 0 41c19 11 32 31 32 55l0 64c0 12-3 23-9 32l41 0c18 0 32-14 32-32z m-264 129c17-20 43-33 72-33 29 0 55 13 72 33 11-19 32-33 56-33 35 0 64 29 64 64 0 35-29 64-64 64-13 0-25-4-35-10-10 42-47 74-93 74-46 0-83-32-93-74-10 6-22 10-35 10-35 0-64-29-64-64 0-35 29-64 64-64 24 0 45 14 56 33z m200 63c18 0 32-14 32-32 0-18-14-32-32-32-18 0-32 14-32 32 0 18 14 32 32 32z m-128 64c35 0 64-29 64-64 0-35-29-64-64-64-35 0-64 29-64 64 0 35 29 64 64 64z m-128-128c-18 0-32 14-32 32 0 18 14 32 32 32 18 0 32-14 32-32 0-18-14-32-32-32z"/>
<glyph glyph-name="pencil" unicode="&#57474;" d="M384 480l-64-64 96-96 64 64z m-352-352l0-96 96 0 256 256-96 96z m96-64l-64 0 0 64 32 0 0-32 32 0z"/>
<glyph glyph-name="person" unicode="&#57475;" d="M352 416c0 53-43 96-96 96-53 0-96-43-96-96 0-53 43-96 96-96 53 0 96 43 96 96z m-96-64c-35 0-64 29-64 64 0 35 29 64 64 64 35 0 64-29 64-64 0-35-29-64-64-64z m64-32l-128 0c-35 0-64-29-64-64l0-64c0-35 29-64 64-64l0-128 128 0 0 128c35 0 64 29 64 64l0 64c0 35-29 64-64 64z m32-128c0-18-14-32-32-32l0 64-32 0 0-192-64 0 0 192-32 0 0-64c-18 0-32 14-32 32l0 64c0 18 14 32 32 32l128 0c18 0 32-14 32-32z"/>
<glyph glyph-name="plus-1" unicode="&#57476;" d="M288 288l0 128-64 0 0-128-128 0 0-64 128 0 0-128 64 0 0 128 128 0 0 64z"/>
<glyph glyph-name="primitive-dot" unicode="&#57477;" d="M128 256c0 71 57 128 128 128 71 0 128-57 128-128 0-71-57-128-128-128-71 0-128 57-128 128z"/>
<glyph glyph-name="primitive-square" unicode="&#57478;" d="M384 128l-256 0 0 256 256 0z"/>
<glyph glyph-name="question" unicode="&#57479;" d="M224 128l64 0 0 64-64 0z m32 256c-48 0-96-48-96-96l64 0c0 16 16 32 32 32 16 0 32-16 32-32 0-32-64-32-64-64l64 0c32 11 64 32 64 80 0 48-48 80-96 80z m0 128c-141 0-256-115-256-256 0-142 115-256 256-256 142 0 256 114 256 256 0 141-114 256-256 256z m0-448c-106 0-192 86-192 192 0 106 86 192 192 192 106 0 192-86 192-192 0-106-86-192-192-192z"/>
<glyph glyph-name="quote" unicode="&#57480;" d="M96 256l0-128 128 0 0 128-64 0c0 0 0 64 64 64l0 64c0 0-128 0-128-128z m320 64l0 64c0 0-128 0-128-128l0-128 128 0 0 128-64 0c0 0 0 64 64 64z"/>
<glyph glyph-name="screen-full" unicode="&#57481;" d="M96 128l320 0 0 256-320 0z m64 192l192 0 0-128-192 0z m-96 96l96 0 0 32-128 0 0-128 32 0z m0-224l-32 0 0-128 128 0 0 32-96 0z m288 256l0-32 96 0 0-96 32 0 0 128z m96-352l-96 0 0-32 128 0 0 128-32 0z"/>
<glyph glyph-name="screen-normal" unicode="&#57482;" d="M96 416l-64 0 0-32 96 0 0 96-32 0z m-64-320l64 0 0-64 32 0 0 96-96 0z m384 320l0 64-32 0 0-96 96 0 0 32z m-32-384l32 0 0 64 64 0 0 32-96 0z m-256 128l256 0 0 192-256 0z m64 128l128 0 0-64-128 0z"/>
<glyph glyph-name="search-1" unicode="&#57483;" d="M493 96l-125 125c18 29 29 62 29 99 0 106-86 192-192 192-106 0-192-86-192-192 0-106 86-192 192-192 36 0 70 11 99 28l125-124c9-9 23-9 32 0l32 32c9 9 9 23 0 32z m-288 96c-71 0-128 57-128 128 0 71 57 128 128 128 70 0 128-57 128-128 0-71-58-128-128-128z"/>
<glyph glyph-name="settings" unicode="&#57484;" d="M64 64l64 0 0 96-64 0z m64 384l-64 0 0-160 64 0z m160 0l-64 0 0-64 64 0z m-256-256l128 0 0 64-128 0z m192-128l64 0 0 192-64 0z m-32 224l128 0 0 64-128 0z m256 160l-64 0 0-192 64 0z m-96-224l0-64 128 0 0 64z m32-160l64 0 0 64-64 0z"/>
<glyph glyph-name="sign-in-1" unicode="&#57485;" d="M352 224l0 64 128 0 0 64-128 0 0 64-96-72 0 72-128 64 256 0 0-96 32 0 0 128-352 0 0-416 192-96 0 96 160 0 0 160-32 0 0-128-128 0 0 168z"/>
<glyph glyph-name="sign-out-1" unicode="&#57486;" d="M320 128l-128 0 0 288-128 64 256 0 0-96 32 0 0 128-352 0 0-416 192-96 0 96 160 0 0 160-32 0z m192 192l-128 96 0-64-128 0 0-64 128 0 0-64z"/>
<glyph glyph-name="sync" unicode="&#57487;" d="M392 275c6-41-7-84-39-115-47-47-119-52-173-17l38 36-138 19 19-134 42 40c76-55 183-50 251 18 40 39 58 91 56 142z m-233 77c47 46 119 52 173 17l-38-36 138-19-19 134-42-40c-76 55-183 50-251-18-40-39-58-91-56-142l56-11c-6 41 7 84 39 115z"/>
<glyph glyph-name="three-bars" unicode="&#57488;" d="M64 416l0-64 384 0 0 64z m0-192l384 0 0 64-384 0z m0-128l384 0 0 64-384 0z"/>
<glyph glyph-name="tools" unicode="&#57489;" d="M143 279c9-8 41-42 41-42l18 18-28 30 54 57c0 0-24 24-14 14 11 38 1 81-28 110-28 30-69 40-105 30l62-64-17-63-60-17-62 64c-10-38-1-79 28-109 30-31 73-40 111-28z m206-62l-74-73 123-128c10-10 23-15 36-15 13 0 27 5 37 15 20 21 20 55 0 76z m163 214l-78 81-231-239 28-29-138-143-32-16-44-73 11-12 70 46 17 33 138 143 28-30z"/>
<glyph glyph-name="trashcan" unicode="&#57490;" d="M416 448l-128 0c0 0 0 12 0 16 0 9-7 16-16 16-9 0-16-7-16-16 0-9 0-16 0-16l-128 0c-18 0-32-14-32-32l0-32c0-18 14-32 32-32l0-288c0-18 14-32 32-32l224 0c18 0 32 14 32 32l0 288c18 0 32 14 32 32l0 32c0 18-14 32-32 32z m-32-368c0-9-7-16-16-16l-192 0c-9 0-16 7-16 16l0 272 32 0 0-240c0-9 7-16 16-16 9 0 16 7 16 16l0 240 32 0 0-240c0-9 7-16 16-16 9 0 16 7 16 16l0 240 32 0 0-240c0-9 7-16 16-16 9 0 16 7 16 16l0 240 32 0z m32 312c0-4-4-8-8-8l-272 0c-4 0-8 4-8 8l0 16c0 4 4 8 8 8l272 0c4 0 8-4 8-8z"/>
<glyph glyph-name="triangle-down" unicode="&#57491;" d="M64 320l192-192 192 192z"/>
<glyph glyph-name="triangle-left" unicode="&#57492;" d="M160 256l192-192 0 384z"/>
<glyph glyph-name="triangle-right" unicode="&#57493;" d="M160 448l192-192-192-192z"/>
<glyph glyph-name="triangle-up" unicode="&#57494;" d="M256 384l-192-192 384 0z"/>
<glyph glyph-name="unfold" unicode="&#57495;" d="M224 320l64 0 0 96 64 0-96 96-96-96 64 0z m96 64l0-32 112 0-64-64-224 0-64 64 112 0 0 32-160 0 0-32 80-80-80-80 0-32 160 0 0 32-112 0 64 64 224 0 64-64-112 0 0-32 160 0 0 32-80 80 80 80 0 32z m-32-160l-64 0 0-96-64 0 96-96 96 96-64 0z"/>
<glyph glyph-name="unmute" unicode="&#57496;" d="M96 320l-64 0 0-128 64 0 128-96 32 0 0 320-32 0z m205-19c-6 7-16 7-22 0-7-6-7-16 0-22 12-13 12-33 0-46-7-6-7-16 0-22 6-7 16-7 22 0 25 25 25 65 0 90z m46 46c-7 6-17 6-23 0-6-7-6-17 0-23 37-38 37-98 0-136-6-6-6-16 0-23 6-6 16-6 23 0 49 50 49 132 0 182z m45 45c-6 6-17 6-23 0-6-6-6-17 0-23 63-62 63-164 0-226-6-6-6-17 0-23 6-6 17-6 23 0 75 75 75 197 0 272z"/>
<glyph glyph-name="versions" unicode="&#57497;" d="M32 160l64 0 0 32-32 0 0 128 32 0 0 32-64 0z m192 256l0-320 256 0 0 320z m192-256l-128 0 0 192 128 0z m-288-32l64 0 0 32-32 0 0 192 32 0 0 32-64 0z"/>
<glyph glyph-name="x" unicode="&#57498;" d="M416 352l-64 64-96-96-96 96-64-64 96-96-96-96 64-64 96 96 96-96 64 64-96 96z"/>
<glyph glyph-name="car-side" unicode="&#57501;" d="M14 220c0 3 0 6 1 10 1 3 3 7 5 10 2 4 4 7 6 10 2 3 4 6 6 10 3 3 5 6 7 8 2 2 3 4 5 6 2 2 4 3 4 3 6 7 14 13 23 17 4 8 8 15 13 23 5 8 12 16 22 26 10 10 21 19 32 26 12 7 27 13 45 18 18 5 37 8 58 8 15 0 29-1 42-4 14-2 26-5 36-9 11-4 20-9 30-15 9-5 17-11 24-17 6-5 13-12 19-18 5-7 10-12 14-17 3-5 6-11 9-16 7-1 13-4 19-6 6-3 11-6 15-9 4-2 7-5 10-7 3-3 5-5 6-6 2-2 2-3 2-3 5-5 11-13 16-22 6-8 10-15 11-21 3-11 4-20 4-26 0-4 0-6-1-7-4-3-7-4-11-4-5 0-9 3-11 8-1 2-2 4-2 5-1 1-2 3-4 7-3 4-5 8-8 11-2 3-6 7-10 11-5 4-9 8-14 10-5 3-11 5-18 7-7 2-14 3-22 3-18 0-34-6-49-20-14-13-21-27-21-41 0-5-2-8-5-12-3-3-7-4-11-4l-103 0c-5 0-8 1-11 4-3 3-5 7-5 12-1 2-2 6-4 10-2 5-5 10-9 16-4 6-9 12-15 17-5 6-12 10-19 14-8 4-16 6-24 6-18 0-32-4-44-10-11-7-22-18-32-34-4-5-8-7-14-7-5 0-9 2-13 6-3 3-4 8-4 13z m41-42c0 16 6 30 17 41 12 12 26 18 42 18 16 0 30-6 42-18 11-11 17-25 17-41 0-17-6-31-17-42-12-12-26-17-42-17-16 0-30 5-42 17-11 11-17 25-17 42z m32 0c0-8 3-14 8-20 5-5 12-7 19-7 8 0 14 2 19 7 6 6 8 12 8 20 0 7-2 14-8 19-5 5-11 8-19 8-7 0-14-3-19-8-5-5-8-12-8-19z m10 0c0 4 2 8 5 12 4 3 8 5 12 5 4 0 8-2 12-5 4-4 6-8 6-12 0-5-2-8-6-12-4-4-8-6-12-6-4 0-8 2-12 6-3 4-5 7-5 12z m20 130c19 3 40 5 61 5l-5 37c-23-9-41-23-56-42z m44-32c0-4 2-8 6-12 4-4 8-6 12-6 4 0 8 2 12 6 3 4 5 8 5 12 0 4-2 8-5 12-4 3-8 5-12 5-4 0-8-2-12-5-4-4-6-8-6-12z m43 84l6-46 33 0c50 0 92-2 128-7-7 8-13 14-21 20-7 6-16 12-27 18-10 5-23 10-37 13-14 3-29 5-45 5-14 0-26-1-37-3z m134-182c0 16 6 30 18 41 11 12 25 18 42 18 16 0 30-6 41-18 12-11 18-25 18-41 0-17-6-31-18-42-11-12-25-17-41-17-17 0-31 5-42 17-12 11-18 25-18 42z m33 0c0-8 2-14 7-20 6-5 12-7 20-7 7 0 14 2 19 7 5 6 7 12 7 20 0 7-2 14-7 19-5 5-12 8-19 8-8 0-14-3-20-8-5-5-7-12-7-19z m9 0c0 4 2 8 6 12 3 3 7 5 12 5 4 0 8-2 11-5 4-4 6-8 6-12 0-5-2-8-6-12-3-4-7-6-11-6-5 0-9 2-12 6-4 4-6 7-6 12z"/>
<glyph glyph-name="caddie-shop-shopping-streamline" unicode="&#57499;" d="M168 430l45 46 0-124c0-6 5-11 11-11 6 0 11 5 11 11l0 124 45-46c3-2 5-3 8-3 3 0 5 1 8 3 4 4 4 11 0 15l-64 64c-1 1-3 2-4 2-3 1-5 1-8 0-1 0-3-1-4-2l-64-64c-4-4-4-11 0-15 5-4 11-4 16 0z m333 18l-74 0c-5 0-10-3-11-8l-28-120-377 0c-4 0-7-2-9-4-2-3-3-7-1-10l64-192c1-4 5-7 10-7l263 0-5-22-226 0c-24 0-43-19-43-42 0-24 19-43 43-43 23 0 42 19 42 43 0 7-2 15-6 21l162 0c-4-6-6-14-6-21 0-24 19-43 42-43 24 0 43 19 43 43 0 19-13 35-30 40l7 29c1 2 2 3 2 5 0 1 0 1 0 1l72 309 66 0c6 0 11 4 11 10 0 6-5 11-11 11z m-419-320l-57 171 358 0-40-171z m46-85c0-12-10-22-21-22-12 0-22 10-22 22 0 11 10 21 22 21 11 0 21-10 21-21z m235 0c0-12-10-22-22-22-11 0-21 10-21 22 0 11 10 21 21 21 12 0 22-10 22-21z"/>
<glyph glyph-name="caddie-shopping-streamline" unicode="&#57500;" d="M216 344c1-1 3-1 4-2 1 0 3-1 4-1 1 0 3 1 4 1 1 1 3 1 4 2l64 64c4 5 4 11 0 16-5 4-11 4-16 0l-45-46 0 123c0 6-5 11-11 11-6 0-11-5-11-11l0-123-45 46c-5 4-11 4-16 0-4-5-4-11 0-16z m285 104l-74 0c-5 0-10-3-11-8l-28-120-377 0c-4 0-7-2-9-4-2-3-3-7-1-10l64-192c1-4 5-7 10-7l263 0-5-22-226 0c-24 0-43-19-43-42 0-24 19-43 43-43 23 0 42 19 42 43 0 7-2 15-6 21l162 0c-4-6-6-14-6-21 0-24 19-43 42-43 24 0 43 19 43 43 0 19-13 35-30 40l7 29c1 2 2 3 2 5 0 1 0 1 0 1l72 309 66 0c6 0 11 4 11 10 0 6-5 11-11 11z m-419-320l-57 171 358 0-40-171z m46-85c0-12-10-22-21-22-12 0-22 10-22 22 0 11 10 21 22 21 11 0 21-10 21-21z m235 0c0-12-10-22-22-22-11 0-21 10-21 22 0 11 10 21 21 21 12 0 22-10 22-21z"/>
<glyph glyph-name="book-dowload-streamline" unicode="&#57502;" d="M245 21l-170 0c-18 0-32 15-32 32l0 363c9-6 20-11 32-11l352 0 0-128c0-6 4-10 10-10 6 0 11 4 11 10l0 150-373 0c-18 0-32 14-32 32 0 17 14 32 32 32l362 0c6 0 11 4 11 10 0 6-5 11-11 11l-362 0c-30 0-54-24-54-53l0-406c0-29 24-53 54-53l170 0c6 0 11 5 11 11 0 6-5 10-11 10z m118 235c-71 0-128-57-128-128 0-71 57-128 128-128 70 0 128 57 128 128 0 71-58 128-128 128z m0-235c-59 0-107 48-107 107 0 59 48 107 107 107 58 0 106-48 106-107 0-59-48-107-106-107z m35 104l-25-25 0 81c0 6-4 11-10 11-6 0-11-5-11-11l0-81-24 25c-5 4-11 4-16 0-4-4-4-11 0-15l43-43c0 0 0 0 0 0l8-7 7 7c0 0 0 0 0 0l43 43c4 4 4 11 0 15-4 4-11 4-15 0z m-323 344l352 0 0-21-352 0z"/>
<glyph glyph-name="book-read-streamline" unicode="&#57503;" d="M475 456c-3 2-7 3-10 1l-220-104-219 104c-3 2-7 1-10-1-3-1-5-5-5-9l0-330c0-4 2-8 6-10l224-106c1-1 3-2 4-2 2 0 3 1 5 2l224 106c4 2 6 6 6 10l0 330c0 4-2 8-5 9z m-443-25l203-97 0-307-203 97z m427-307l-203-97 0 307 203 97z m-400 346l186-88 186 88c6 3 8 9 5 15-2 5-9 7-14 5l-177-85-176 85c-6 2-12 0-15-5-2-6 0-12 5-15z"/>
<glyph glyph-name="bubble-comment-streamline-talk" unicode="&#57504;" d="M480 469l-448 0c-18 0-32-14-32-32l0-277c0-18 14-32 32-32l32 0 0-100 100 100 316 0c18 0 32 14 32 32l0 277c0 18-14 32-32 32z m11-309c0-6-5-11-11-11l-324 0-71-70 0 70-53 0c-6 0-11 5-11 11l0 277c0 6 5 11 11 11l448 0c6 0 11-5 11-11z m-299 139c0-12-10-22-21-22-12 0-22 10-22 22 0 11 10 21 22 21 11 0 21-10 21-21z m171 0c0-12-10-22-22-22-11 0-21 10-21 22 0 11 10 21 21 21 12 0 22-10 22-21z m-86 0c0-12-9-22-21-22-12 0-21 10-21 22 0 11 9 21 21 21 12 0 21-10 21-21z"/>
<glyph glyph-name="clock-streamline-time" unicode="&#57505;" d="M448 512l-384 0c-35 0-64-29-64-64l0-384c0-35 29-64 64-64l384 0c35 0 64 29 64 64l0 384c0 35-29 64-64 64z m43-448c0-24-19-43-43-43l-384 0c-24 0-43 19-43 43l0 384c0 24 19 43 43 43l384 0c24 0 43-19 43-43z m-235 384c-106 0-192-86-192-192 0-106 86-192 192-192 106 0 192 86 192 192 0 106-86 192-192 192z m0-363c-94 0-171 77-171 171 0 94 77 171 171 171 94 0 171-77 171-171 0-94-77-171-171-171z m64 182l-53 0 0 96c0 6-5 10-11 10-6 0-11-4-11-10l0-118 75 0c6 0 11 5 11 11 0 6-5 11-11 11z"/>
<glyph glyph-name="computer-imac" unicode="&#57506;" d="M469 469l-426 0c-24 0-43-20-43-44l0-316c0-25 19-45 43-45l202 0 0-21-138 0c-6 0-11-5-11-11 0-6 5-11 11-11l298 0c6 0 11 5 11 11 0 6-5 11-11 11l-138 0 0 21 202 0c24 0 43 20 43 45l0 316c0 24-19 44-43 44z m-426-21l426 0c12 0 22-10 22-23l0-254-470 0 0 254c0 13 10 23 22 23z m426-363l-426 0c-12 0-22 11-22 24l0 40 470 0 0-40c0-13-10-24-22-24z m-192 32c0-11-9-21-21-21-12 0-21 10-21 21 0 12 9 22 21 22 12 0 21-10 21-22z"/>
<glyph glyph-name="computer-network-streamline" unicode="&#57507;" d="M21 331l0 10 256 0 0 139c0 18-13 32-30 32l-217 0c-16 0-30-14-30-32l0-149c0-18 14-32 30-32l98 0 0 21-98 0c-5 0-9 5-9 11z m0 149c0 6 4 11 9 11l217 0c5 0 9-5 9-11l0-117-235 0z m32-203c-6 0-10-4-10-10 0-6 4-11 10-11l75 0 0 21z m414 43l-273 0c-25 0-45-22-45-49l0-179c0-27 20-49 45-49l126 0 0-22-85 0c-6 0-11-4-11-10 0-6 5-11 11-11l188 0c6 0 11 5 11 11 0 6-5 10-11 10l-82 0 0 22 126 0c25 0 45 22 45 49l0 179c0 27-20 49-45 49z m-273-21l273 0c13 0 24-13 24-28l0-143-320 0 0 143c0 15 10 28 23 28z m273-235l-273 0c-13 0-23 12-23 28l0 15 320 0 0-15c0-16-11-28-24-28z m-126 21c0-6-4-10-10-10-6 0-11 4-11 10 0 6 5 11 11 11 6 0 10-5 10-11z"/>
<glyph glyph-name="dashboard-speed-streamline" unicode="&#57508;" d="M256 512c-141 0-256-115-256-256 0-141 115-256 256-256 141 0 256 115 256 256 0 141-115 256-256 256z m0-491c-129 0-235 106-235 235 0 129 106 235 235 235 129 0 235-106 235-235 0-129-106-235-235-235z m136 371c-4 4-11 4-15 0l-99-99c-7 3-14 6-22 6-24 0-43-19-43-43 0-24 19-43 43-43 24 0 43 19 43 43 0 8-3 15-6 22l99 99c4 4 4 11 0 15z m-136-157c-12 0-21 9-21 21 0 12 9 21 21 21 12 0 21-9 21-21 0-12-9-21-21-21z m-149 21c0 6-5 11-11 11l-43 0c-6 0-10-5-10-11 0-6 4-11 10-11l43 0c6 0 11 5 11 11z m-3-51l-39-17c-6-2-8-8-6-14 2-4 6-6 10-6 1 0 3 0 4 1l39 16c6 2 8 8 6 14-2 5-8 8-14 6z m343-17l-39 17c-6 2-12-1-14-6-2-6 0-12 6-14l39-16c1-1 3-1 4-1 4 0 8 2 10 6 2 6 0 12-6 14z m12 79l-43 0c-6 0-11-5-11-11 0-6 5-11 11-11l43 0c6 0 10 5 10 11 0 6-4 11-10 11z m-65 46c2-4 6-6 10-6 1 0 3 0 4 0l39 17c6 2 8 8 6 14-2 5-8 8-14 5l-39-16c-6-2-8-8-6-14z m-81 81c1-1 3-1 4-1 4 0 8 3 10 7l16 39c3 6 0 12-5 14-6 2-12 0-14-6l-17-39c-2-6 1-12 6-14z m-57 11c6 0 11 5 11 11l0 43c0 6-5 10-11 10-6 0-11-4-11-10l0-43c0-6 5-11 11-11z m-71-5c2-4 6-7 10-7 1 0 3 0 4 1 5 2 8 8 6 14l-17 39c-2 6-8 8-14 6-5-2-8-8-5-14z m-35-23l-30 30c-4 4-11 4-15 0-4-4-4-11 0-15l30-30c2-2 5-4 8-4 3 0 5 2 7 4 5 4 5 10 0 15z m-85-53l39-17c1 0 3 0 4 0 4 0 8 2 10 6 2 6 0 12-6 14l-39 16c-6 3-12 0-14-5-2-6 0-12 6-14z m287-153l-192 0c-6 0-11-5-11-11l0-64c0-6 5-11 11-11l192 0c6 0 11 5 11 11l0 64c0 6-5 11-11 11z m-11-64l-170 0 0 42 170 0z"/>
<glyph glyph-name="database-streamline" unicode="&#57509;" d="M256 491c-120 0-213-43-213-96l0-278c0-54 93-96 213-96 120 0 213 42 213 96l0 278c0 53-93 96-213 96z m192-278c0-44-101-74-192-74-91 0-192 30-192 74l0 54c34-32 106-54 192-54 86 0 158 22 192 54z m0 96c0-44-101-74-192-74-91 0-192 30-192 74l0 43c34-32 106-53 192-53 86 0 158 21 192 53z m-192 160c91 0 192-30 192-74 0-44-101-75-192-75-91 0-192 31-192 75 0 44 101 74 192 74z m0-426c-91 0-192 30-192 74l0 54c34-32 106-54 192-54 86 0 158 22 192 54l0-54c0-44-101-74-192-74z"/>
<glyph glyph-name="delete-garbage-streamline" unicode="&#57510;" d="M171 363c-6 0-11-5-11-11l0-267c0-6 5-10 11-10 6 0 10 4 10 10l0 267c0 6-4 11-10 11z m85 0c-6 0-11-5-11-11l0-267c0-6 5-10 11-10 6 0 11 4 11 10l0 267c0 6-5 11-11 11z m85 0c-6 0-10-5-10-11l0-267c0-6 4-10 10-10 6 0 11 4 11 10l0 267c0 6-5 11-11 11z m171 74l-139 0 0 64-234 0 0-64-139 0 0-21 75 0 0-416 362 0 0 416 75 0z m-352 43l192 0 0-43-192 0z m256-459l-320 0 0 395 320 0z"/>
<glyph glyph-name="design-pencil-rule-streamline" unicode="&#57511;" d="M459 512l-150 0c-6 0-10-5-10-11l0-490c0-6 4-11 10-11l150 0c6 0 10 5 10 11l0 490c0 6-4 11-10 11z m-11-491l-128 0 0 64 43 0 0 22-43 0 0 42 43 0 0 22-43 0 0 42 43 0 0 22-43 0 0 42 43 0 0 22-43 0 0 42 43 0 0 22-43 0 0 42 43 0 0 22-43 0 0 64 128 0z m-300 465c-4 6-14 6-18 0l-64-96c-1-2-2-4-2-6l0-309c0-30 24-54 53-54l43 0c29 0 53 24 53 54l0 309c0 2 0 4-1 6z m-9-141c3-3 6-6 10-8l0-188-21 0 0 188c4 2 8 5 11 8z m-32-196l-22 0 0 188c7-4 14-6 22-6z m-22-21l107 0 0-21-107 0z m86 21l0 182c7 0 15 2 21 6l0-188z m-32 312l15-24-31 0z m-54-80l24 35 60 0 23-35 0-8c0-11-10-21-21-21-12 0-22 10-22 21 0 6-4 11-10 11-6 0-11-5-11-11 0-11-10-21-21-21-12 0-22 10-22 21z m75-338l-43 0c-17 0-32 14-32 32l0 10 107 0 0-10c0-18-14-32-32-32z"/>
<glyph glyph-name="design-graphic-tablet-streamline-tablet" unicode="&#57512;" d="M469 405c-6 0-10-4-10-10 0-6 4-11 10-11 12 0 22-10 22-21l0-320c0-12-10-22-22-22l-426 0c-12 0-22 10-22 22l0 21 64 0 0 277-64 0 0 22c0 11 10 21 22 21l213 0c6 0 11 5 11 11 0 6-5 10-11 10l-213 0c-24 0-43-19-43-42l0-320c0-24 19-43 43-43l426 0c24 0 43 19 43 43l0 320c0 23-19 42-43 42z m-448-170l43 0 0-64-43 0z m0-150l0 64 43 0 0-64z m43 235l0-64-43 0 0 64z m149 21c6 0 11 5 11 11 0 6-5 11-11 11l-106 0 0-320 362 0 0 320-42 0c-6 0-11-5-11-11 0-6 5-11 11-11l21 0 0-277-320 0 0 277z m178 142l-177-176-21-67-19-19c-4-4-4-11 0-15 2-2 5-3 7-3 3 0 6 1 8 3l19 19 67 21 1 2 115 115c0 0 0 0 0 0 0 0 0 0 0 0l75 75c17 17 17 44 0 60-16 17-44 17-60 0l-15-15c0 0 0 0 0 0 0 0 0 0 0 0z m-8-98l-30 30 46 46 30-30z m-114-114l-30 30 99 99 30-30z m-41 10l21-21-30-9z m223 202c9-8 9-22 0-30l-7-7-30 30 7 7c8 8 22 8 30 0z"/>
<glyph glyph-name="earth-globe-streamline" unicode="&#57513;" d="M235 139c100 0 181 81 181 181 0 100-81 181-181 181-100 0-182-81-182-181 0-100 82-181 182-181z m0 341c88 0 160-72 160-160 0-88-72-160-160-160-88 0-160 72-160 160 0 88 72 160 160 160z m166-326c89 89 91 232 7 324l8 8c4 4 4 11 0 15-4 4-11 4-15 0l-31-30c-4-4-4-11 0-15 3-2 5-3 8-3 3 0 6 1 8 3l7 7c75-84 73-213-7-294-81-80-211-83-294-7l7 7c4 4 4 11 0 15-4 4-11 4-15 0l-30-30c-4-4-4-11 0-15 2-2 5-3 7-3 3 0 6 1 8 3l8 8c39-36 87-56 136-61l0-23c-40-4-79-19-112-44l-26-19 319 0-25 19c-34 25-72 40-113 44l0 23c53 5 104 28 145 68z m-256-133c27 14 58 22 90 22 31 0 62-8 90-22z"/>
<glyph glyph-name="edit-modify-streamline" unicode="&#57514;" d="M384 267c-6 0-11-5-11-11l0-235-352 0 0 427 288 0c6 0 11 5 11 11 0 6-5 10-11 10l-309 0 0-469 395 0 0 256c0 6-5 11-11 11z m126 224c-6 13-18 21-31 21-8 0-16-3-22-10l-30-30c0 0 0 0 0 0 0 0 0 0 0 0l-174-173c0-1-1-2-2-3l-30-60c-2-5-1-10 2-13 2-2 5-3 8-3 1 0 3 0 5 1l60 30c1 1 2 2 3 2l203 204c10 10 13 22 8 34z m-225-221l-30-15 15 30 164 165 16-16z m202 202l-22-22-15 15 22 22c2 3 5 4 7 4 5 0 9-4 11-8 2-4 1-7-3-11z"/>
<glyph glyph-name="frame-picture-streamline" unicode="&#57515;" d="M387 395l-113 114c-2 2-4 3-7 3 0 0 0 0 0 0-3 0-6-1-8-3l-114-114-145 0 0-395 512 0 0 395z m-120 91l90-91-182 0z m224-465l-470 0 0 352 470 0z m-22 331l-426 0 0-309 426 0z m-405-21l384 0 0-128-53 0c-6 0-11-5-11-11l0-53-32 0c-6 0-11-5-11-11l0-64-37 0c-17 22-101 133-101 235 0 6-5 10-11 10-6 0-11-4-11-10 0-101-84-213-101-235l-16 0z m320-267l-21 0 0 53 21 0z m-241 53l98 0c14-22 27-41 36-53l-170 0c9 12 22 31 36 53z m12 22c14 26 28 57 37 89 9-32 23-63 37-89z m250-75l0 117 43 0 0-117z"/>
<glyph glyph-name="home-house-streamline" unicode="&#57516;" d="M437 224c-6 0-10-5-10-11l0-192-107 0 0 139-128 0 0-139-107 0 0 203c0 6-4 11-10 11-6 0-11-5-11-11l0-224 149 0 0 139 86 0 0-139 149 0 0 213c0 6-5 11-11 11z m72 18l-253 242-253-242c-4-4-4-10 0-15 4-4 11-4 15 0l238 228 238-228c2-2 5-3 7-3 3 0 6 1 8 3 4 5 4 11 0 15z m-168 185l64 0 0-64c0-6 5-11 11-11 6 0 11 5 11 11l0 85-86 0c-6 0-10-5-10-11 0-6 4-10 10-10z"/>
<glyph glyph-name="lock-locker-streamline" unicode="&#57517;" d="M245 174l0-57c0-6 5-10 11-10 6 0 11 4 11 10l0 57c6 3 10 10 10 18 0 12-9 21-21 21-12 0-21-9-21-21 0-8 4-15 10-18z m139 146l0 64c0 71-57 128-128 128-71 0-128-57-128-128l0-64-64 0 0-320 384 0 0 320z m-235 64c0 59 48 107 107 107 59 0 107-48 107-107l0-64-214 0z m278-363l-342 0 0 278 342 0z"/>
<glyph glyph-name="locker-streamline-unlock" unicode="&#57518;" d="M245 174l0-57c0-6 5-10 11-10 6 0 11 4 11 10l0 57c6 3 10 10 10 18 0 12-9 21-21 21-12 0-21-9-21-21 0-8 4-15 10-18z m139 146l0 64c0 71-57 128-128 128-71 0-128-57-128-128l21 0c0 59 48 107 107 107 59 0 107-48 107-107l0-64-299 0 0-320 384 0 0 320z m43-299l-342 0 0 278 342 0z"/>
<glyph glyph-name="map-pin-streamline" unicode="&#57519;" d="M256 512c-94 0-171-77-171-171 0-90 156-316 162-326l9-12 9 12c6 10 162 236 162 326 0 94-77 171-171 171z m0-472c-33 50-149 229-149 301 0 83 67 150 149 150 82 0 149-67 149-150 0-72-116-251-149-301z m0 376c-41 0-75-33-75-75 0-41 34-74 75-74 41 0 75 33 75 74 0 42-34 75-75 75z m0-128c-29 0-53 24-53 53 0 30 24 54 53 54 29 0 53-24 53-54 0-29-24-53-53-53z"/>
<glyph glyph-name="man-people-streamline-user" unicode="&#57520;" d="M461 143l-130 36 0 38c38 29 64 78 64 135 0 88-62 160-139 160-76 0-138-72-138-160 0-56 25-106 63-134l0-39-131-36c-30-11-50-39-50-71l0-72 512 0 0 72c0 32-20 60-51 71z m-205 348c51 0 94-39 110-93-4-4-10-6-18-6-21 1-50 19-61 40l-10 17-9-18c-9-18-25-28-46-32-28-5-58 5-71 11 18 48 59 81 105 81z m-116-139c0 13 1 26 4 38 20-10 52-17 82-12 22 4 39 14 52 30 18-21 46-36 70-37 0 0 1 0 2 0 8 0 15 2 21 5 2-8 2-16 2-24 0-76-52-139-117-139-64 0-116 63-116 139z m350-331l-468 0 0 51c0 23 14 43 34 50l147 41 0 42c16-9 34-13 53-13 19 0 37 4 53 12l0-41 146-41c21-7 35-27 35-50z"/>
<glyph glyph-name="map-streamline-user" unicode="&#57521;" d="M256 363c41 0 75 33 75 74 0 41-34 75-75 75-41 0-75-34-75-75 0-41 34-74 75-74z m0 128c29 0 53-24 53-54 0-29-24-53-53-53-29 0-53 24-53 53 0 30 24 54 53 54z m-43-289l0-85c0-6 5-10 11-10l64 0c6 0 11 4 11 10l0 85c47 25 64 90 64 139 0 6-5 11-11 11l-192 0c-6 0-11-5-11-11 0-49 17-114 64-139z m128 129c-2-38-16-95-57-112-4-2-7-6-7-10l0-81-42 0 0 81c0 4-3 8-7 10-41 17-55 74-57 112z m-85-256c-86 0-136 17-139 26 1 2 13 13 55 20 6 1 10 7 9 13-1 6-6 9-12 8-49-8-73-22-73-41 0-38 101-48 160-48 59 0 160 10 160 48 0 19-24 33-72 41-6 1-12-2-13-8-1-6 3-12 9-13 43-7 54-18 55-19-3-10-53-27-139-27z m87 112c-6 0-11-4-12-10-1-5 3-11 9-12 99-12 151-44 151-69 0-35-97-75-235-75-138 0-235 40-235 75 0 25 52 57 151 69 6 1 10 7 9 12-1 6-6 10-12 10-82-11-169-40-169-91 0-47 90-96 256-96 166 0 256 49 256 96 0 51-87 80-169 91z"/>
<glyph glyph-name="notebook-streamline" unicode="&#57522;" d="M331 427l-150 0 0-107 150 0z m-22-86l-106 0 0 64 106 0z m139 118l-11 0 0 53-384 0 0-85-21 0 0-22 21 0 0-42-21 0 0-22 21 0 0-42-21 0 0-22 21 0 0-42-21 0 0-22 21 0 0-42-21 0 0-22 21 0 0-42-21 0 0-22 21 0 0-85 384 0 0 96 11 0c24 0 43 19 43 43l0 277c0 24-19 43-43 43z m0-22c12 0 21-9 21-21l0-43-32 0 0 64z m-11-149l0 64 32 0 0-64z m32-21l0-64-32 0 0 64z m-53-246l-341 0 0 64 21 0 0 22-21 0 0 42 21 0 0 22-21 0 0 42 21 0 0 22-21 0 0 42 21 0 0 22-21 0 0 42 21 0 0 22-21 0 0 42 21 0 0 22-21 0 0 64 341 0z m32 96l-11 0 0 64 32 0 0-42c0-12-9-22-21-22z"/>
<glyph glyph-name="pen-streamline" unicode="&#57523;" d="M509 449l-60 60c-2 2-5 3-8 3-3 0-5-1-7-3l-9-8c-20 13-49 11-67-7l-120-121c-5-4-5-11 0-15 2-2 4-3 7-3 3 0 6 1 8 3l120 121c10 10 25 12 37 6l-308-308c-4-4-4-11 0-15l4-4c-4 1-7 1-10 1-17 0-33-7-45-19-40-39-40-116-40-119 0 0 0 0 0 0l0-11 10 0c4 0 80 1 120 41 12 12 18 28 18 45 0 3 0 6-1 9l4-3c2-2 5-4 8-4 3 0 5 2 7 4l211 211c0 0 0 0 0 0 0 0 0 0 0 0l121 120c4 5 4 11 0 16z m-383-383c-20-20-53-28-76-32l39 40c4 4 4 11 0 15-4 4-11 4-15 0l-40-40c4 24 12 57 32 76 8 8 19 13 30 13 11 0 22-5 30-13 8-8 12-18 12-29 0-12-4-22-12-30z m44 58l-46 45 197 197 45-46z m211 211l-45 46 105 105 45-45z"/>
<glyph glyph-name="pen-streamline-1" unicode="&#57524;" d="M509 448l-61 61c-2 2-4 3-7 3-3 0-6-1-8-3l-8-9c-21 14-49 12-67-6l-121-121c-4-4-4-11 0-15 2-2 5-3 8-3 2 0 5 1 7 3l121 121c10 9 24 11 36 6l-346-346c-4-4-4-11 0-15l8-8-38-37c-2-2-3-5-3-8 0-3 1-6 3-8l8-7-38-38c-4-4-4-11 0-15 2-2 5-3 8-3 2 0 5 1 7 3l38 38 7-8c3-2 5-3 8-3 3 0 5 1 8 3l37 38 8-8c2-2 5-3 7-3 3 0 6 1 8 3l370 370c4 4 4 11 0 15z m-438-392l-15 15 30 30 15-15z m60 30l-37 38c0 0 0 0 0 0 0 0 0 0 0 0l-8 7 234 234 45-45z m249 249l-45 45 106 106 45-45z"/>
<glyph glyph-name="photo-pictures-streamline" unicode="&#57525;" d="M427 139l-342 0 0 213 22 0 0 21-32 0c-6 0-11-4-11-10l0-235c0-6 5-11 11-11l362 0c6 0 11 5 11 11l0 53-21 0z m74 320l-362 0c-6 0-11-5-11-11l0-235c0-6 5-10 11-10l362 0c6 0 11 4 11 10l0 235c0 6-5 11-11 11z m-10-235l-342 0 0 213 342 0z m-128-171l-342 0 0 214 22 0 0 21-32 0c-6 0-11-5-11-11l0-234c0-6 5-11 11-11l362 0c6 0 11 5 11 11l0 53-21 0z"/>
<glyph glyph-name="picture-streamline" unicode="&#57526;" d="M0 512l0-512 512 0 0 512z m491-21l0-342-15 0-73 145c-7 16-23 26-41 26-17 0-32-9-40-23l-57-97c-16 20-52 56-94 56-53 0-92-81-103-107l-47 0 0 342z m-39-342l-361 0c16 33 47 86 80 86 47 0 86-59 87-60 2-3 5-5 9-4 4 0 7 2 9 5l64 110c5 8 13 13 22 13 9 0 18-6 22-14z m-431-128l0 107 470 0 0-107z m118 299l64 0c35 0 64 29 64 64 0 35-29 64-64 64-28 0-52-17-61-43-24 2-46-18-46-42 0-24 19-43 43-43z m0 64c2 0 5-1 7-2l13-4 2 13c3 21 21 36 42 36 23 0 42-19 42-43 0-24-19-43-42-43l-64 0c-12 0-22 10-22 22 0 11 10 21 22 21z"/>
<glyph glyph-name="picture-streamline-1" unicode="&#57527;" d="M491 395l0-374-374 0 0-21 395 0 0 395z m-22 64l-21 0 0-395-395 0 0-21 416 0z m-42-288l0 341-427 0 0-427 427 0z m-406 320l384 0 0-299-35 0-61 164c-2 3-5 6-9 7-4 0-8-2-10-5l-78-116-44 53c-2 2-5 4-9 4-3-1-6-3-8-6l-61-101-69 0z m326-299l-232 0 46 78 44-53c2-2 6-4 9-4 3 1 6 2 8 5l74 111z m-326-85l0 64 384 0 0-64z m107 256c24 0 43 19 43 42 0 24-19 43-43 43-24 0-43-19-43-43 0-23 19-42 43-42z m0 64c12 0 21-10 21-22 0-11-9-21-21-21-12 0-21 10-21 21 0 12 9 22 21 22z"/>
<glyph glyph-name="settings-streamline" unicode="&#57528;" d="M469 512l-426 0c-24 0-43-19-43-43l0-426c0-24 19-43 43-43l426 0c24 0 43 19 43 43l0 426c0 24-19 43-43 43z m22-469c0-12-10-22-22-22l-426 0c-12 0-22 10-22 22l0 426c0 12 10 22 22 22l426 0c12 0 22-10 22-22z m-96 256l-22 0 0 138c0 6-4 11-10 11-6 0-11-5-11-11l0-138-21 0c-6 0-11-5-11-11l0-43c0-6 5-10 11-10l21 0 0-32c0-6 5-11 11-11 6 0 10 5 10 11l0 32 22 0c6 0 10 4 10 10l0 43c0 6-4 11-10 11z m-11-43l-43 0 0 21 43 0z m-96 149l-21 0 0 32c0 6-5 11-11 11-6 0-11-5-11-11l0-32-21 0c-6 0-11-4-11-10l0-43c0-6 5-11 11-11l21 0 0-138c0-6 5-11 11-11 6 0 11 5 11 11l0 138 21 0c6 0 11 5 11 11l0 43c0 6-5 10-11 10z m-11-42l-42 0 0 21 42 0z m-96-22l-21 0 0 96c0 6-5 11-11 11-6 0-10-5-10-11l0-96-22 0c-6 0-10-4-10-10l0-43c0-6 4-11 10-11l22 0 0-74c0-6 4-11 10-11 6 0 11 5 11 11l0 74 21 0c6 0 11 5 11 11l0 43c0 6-5 10-11 10z m-10-42l-43 0 0 21 43 0z m192-150c-24 0-43-19-43-42 0-24 19-43 43-43 23 0 42 19 42 43 0 23-19 42-42 42z m0-64c-12 0-22 10-22 22 0 11 10 21 22 21 11 0 21-10 21-21 0-12-10-22-21-22z m-107 64c-24 0-43-19-43-42 0-24 19-43 43-43 24 0 43 19 43 43 0 23-19 42-43 42z m0-64c-12 0-21 10-21 22 0 11 9 21 21 21 12 0 21-10 21-21 0-12-9-22-21-22z m-107 64c-23 0-42-19-42-42 0-24 19-43 42-43 24 0 43 19 43 43 0 23-19 42-43 42z m0-64c-11 0-21 10-21 22 0 11 10 21 21 21 12 0 22-10 22-21 0-12-10-22-22-22z"/>
<glyph glyph-name="settings-streamline-1" unicode="&#57529;" d="M480 309l-40 0c-4 14-9 27-16 40l28 28c6 6 9 14 9 22 0 9-3 17-9 23l-30 30c-12 12-33 12-45 0l-28-28c-13 7-26 12-40 16l0 40c0 18-14 32-32 32l-42 0c-18 0-32-14-32-32l0-40c-14-4-27-9-40-16l-28 28c-12 12-33 12-45 0l-30-30c-13-13-13-33 0-45l28-28c-7-13-12-26-16-40l-40 0c-9 0-17-3-23-9-6-6-9-14-9-23l0-42c0-18 14-32 32-32l40 0c4-14 9-27 16-40l-28-28c-6-6-10-14-10-22 0-9 4-17 10-23l30-30c12-12 33-12 45 0l28 28c13-7 26-12 40-16l0-40c0-18 14-32 32-32l42 0c18 0 32 14 32 32l0 40c14 4 27 9 40 16l28-28c12-12 33-12 45 0l30 30c13 13 13 33 0 45l-28 28c7 13 12 26 16 40l40 0c9 0 17 3 23 9 6 6 9 14 9 23l0 42c0 18-14 32-32 32z m11-74c0-3-1-6-3-8-2-2-5-3-8-3l-48 0c-5 0-9-3-10-8-4-17-11-34-20-49-3-4-2-9 1-13l34-34c4-4 4-11 0-15l-30-30c-4-4-11-4-15 0l-34 34c-4 3-9 4-13 1-15-9-32-16-49-20-5-1-8-5-8-10l0-48c0-6-5-11-11-11l-42 0c-6 0-11 5-11 11l0 48c0 5-3 9-8 10-17 4-34 11-49 20-1 2-3 2-5 2-3 0-6-1-8-3l-34-34c-4-4-11-4-15 0l-30 30c-2 2-3 5-3 8 0 2 1 5 3 7l34 34c3 4 4 9 1 13-9 15-16 32-20 49-1 5-5 8-10 8l-48 0c-6 0-11 5-11 11l0 42c0 3 1 6 3 8 2 2 5 3 8 3l48 0c5 0 9 3 10 8 4 17 11 34 20 49 3 4 2 9-1 13l-34 34c-4 4-4 11 0 15l30 30c4 4 11 4 15 0l34-34c4-3 9-4 13-1 15 9 32 16 49 20 5 1 8 5 8 10l0 48c0 6 5 11 11 11l42 0c6 0 11-5 11-11l0-48c0-5 3-9 8-10 17-4 34-11 49-20 4-3 9-2 13 1l34 34c4 4 11 4 15 0l30-30c2-2 3-5 3-8 0-2-1-5-3-7l-34-34c-3-4-4-9-1-13 9-15 16-32 20-49 1-5 5-8 10-8l48 0c6 0 11-5 11-11z m-235 128c-59 0-107-48-107-107 0-59 48-107 107-107 59 0 107 48 107 107 0 59-48 107-107 107z m0-192c-47 0-85 38-85 85 0 47 38 85 85 85 47 0 85-38 85-85 0-47-38-85-85-85z"/>
<glyph glyph-name="settings-streamline-2" unicode="&#57530;" d="M478 94l-90 91 15 15c4 4 4 11 0 15-4 4-11 4-15 0l-38-38-56 56 70 71c10-4 20-5 31-5 25 0 49 10 68 28 27 28 35 69 20 105-1 3-4 6-8 6-3 1-7 0-9-3l-38-37-30 0 0 30 37 38c3 2 4 6 3 9 0 4-3 7-6 8-12 5-24 8-37 8-26 0-50-10-68-28-26-27-35-64-23-99l-71-70-110 111 7 7c2 2 3 5 3 8 0 2-1 5-3 7l-60 61c-4 4-11 4-15 0l-31-31c-2-2-3-4-3-7 0-3 1-6 3-8l61-60c2-2 5-3 7-3 3 0 6 1 8 3l7 7 111-110-70-71c-10 4-20 5-31 5-25 0-49-10-68-28-27-28-35-69-20-105 1-3 4-6 8-6 3-1 7 0 9 2l38 38 30 0 0-30-38-38c-2-2-3-6-2-9 0-4 3-7 6-8 12-5 24-8 37-8 26 0 50 10 68 28 26 26 35 64 23 99l71 70 56-56-38-38c-4-4-4-11 0-15 2-2 5-3 8-3 2 0 5 1 7 3l15 15 91-90c8-8 19-13 30-13 11 0 22 5 30 13 8 8 13 19 13 30 0 11-5 22-13 30z m-386 311l-45 45 15 15 45-45z m94-259c12-28 6-60-16-82-14-14-33-21-53-21-4 0-9 0-13 1l28 28c2 2 4 5 4 8l0 45c0 6-5 10-11 10l-45 0c-3 0-6-1-8-3l-28-28c-4 24 3 48 21 66 14 14 32 22 52 22 10 0 20-2 29-6 4-2 9-1 12 2l166 166c3 3 4 7 2 11-12 29-6 61 16 82 14 14 33 22 53 22 4 0 8 0 13-1l-28-28c-2-2-4-5-4-8l0-45c0-6 5-11 11-11l45 0c3 0 6 2 8 4l28 28c4-24-3-49-21-66-14-14-32-22-52-22-10 0-20 2-29 6-4 2-9 1-12-2l-166-166c-3-3-4-8-2-12z m277-97c-8-8-22-8-30 0l-91 90 31 31 90-91c4-4 6-9 6-15 0-6-2-11-6-15z"/>
<glyph glyph-name="speech-streamline-talk-user" unicode="&#57531;" d="M501 512l-320 0c-6 0-10-5-10-11l0-85c0-6 4-11 10-11 6 0 11 5 11 11l0 75 299 0 0-171-64 0c-3 0-6-1-8-3l-67-67 0 59c0 6-5 11-11 11l-42 0c-6 0-11-5-11-11 0-6 5-10 11-10l32 0 0-75c0-4 2-8 6-10 2 0 3-1 4-1 3 0 6 1 8 3l82 83 70 0c6 0 11 4 11 10l0 192c0 6-5 11-11 11z m-200-412l-78 28 0 36c25 20 40 53 40 91 0 61-42 112-94 112-53 0-95-51-95-112 0-40 17-75 44-94l0-33-77-28c-25-9-41-32-41-58l0-42 341 0 0 42c0 26-16 49-40 58z m-132 245c35 0 64-31 72-71-23-4-37 3-50 27l-10 17-9-17c-7-14-33-27-54-27-8 0-14 1-21 3 9 39 37 68 72 68z m-74-90c0 0 0 1 0 1 7-2 15-3 23-3 23 0 48 10 63 25 13-18 29-27 49-27 4 0 8 1 12 1-1-48-34-88-73-88-41 0-74 41-74 91z m225-234l-299 0 0 21c0 17 11 32 27 38l91 33 0 36c9-4 19-6 30-6 11 0 23 3 33 8l0-38 92-33c15-6 26-21 26-38z m85 374c0-6-4-11-10-11-6 0-11 5-11 11 0 6 5 10 11 10 6 0 10-4 10-10z m-53 0c0-6-5-11-11-11-6 0-10 5-10 11 0 6 4 10 10 10 6 0 11-4 11-10z m-53 0c0-6-5-11-11-11-6 0-11 5-11 11 0 6 5 10 11 10 6 0 11-4 11-10z"/>
<glyph glyph-name="streamline-suitcase-travel" unicode="&#57532;" d="M469 384l-128 0 0 53c0 18-14 32-32 32l-106 0c-18 0-32-14-32-32l0-53-128 0c-24 0-43-19-43-43l0-277c0-24 19-43 43-43l426 0c24 0 43 19 43 43l0 277c0 24-19 43-43 43z m-266 64l106 0c6 0 11-5 11-11l0-10-128 0 0 10c0 6 5 11 11 11z m-11-43l128 0 0-21-128 0z m299-341c0-12-10-21-22-21l-426 0c-12 0-22 9-22 21l0 277c0 12 10 22 22 22l426 0c12 0 22-10 22-22z m-64 235l-352 0c-6 0-11-5-11-11 0-6 5-11 11-11l352 0c6 0 10 5 10 11 0 6-4 11-10 11z m0-86l-352 0c-6 0-11-4-11-10 0-6 5-11 11-11l352 0c6 0 10 5 10 11 0 6-4 10-10 10z m0-85l-352 0c-6 0-11-5-11-11 0-6 5-10 11-10l352 0c6 0 10 4 10 10 0 6-4 11-10 11z"/>
<glyph glyph-name="streamline-sync" unicode="&#57533;" d="M150 298c3 5 1 12-4 15-4 3-11 2-14-3l-43-66c-2 35 6 71 25 102 24 38 62 66 106 76 61 15 125-6 167-53 4-4 11-5 15-1 5 4 5 11 1 15-47 53-119 76-188 60-50-12-92-42-119-86-20-33-30-71-28-109l-47 54c-4 4-11 5-15 1-4-4-5-11-1-15l70-81c0 0 0 0 0 0 1-1 2-1 3-2 0 0 0 0 1-1 1 0 2 0 4 0 0 0 0 0 0 0 0 0 0 0 1 0 0 0 0 0 0 0 0 0 1 0 1 0 1 0 2 0 2 1 1 0 1 0 2 0 1 1 2 2 2 3 1 0 1 0 1 0z m358-104l-60 88c0 1 0 1 0 1-1 1-2 2-3 2 0 1-1 1-1 1-1 0-2 1-3 1 0 0-1 0-1 0 0 0-1 0-2 0 0 0 0 0 0 0 0 0 0 0 0 0-1 0-2-1-4-1 0 0 0 0 0 0-1-1-2-2-3-3l-68-82c-4-4-3-11 1-15 5-3 12-3 15 2l51 60c-4-75-56-140-131-158-58-14-117 3-160 45-4 4-11 4-15-1-4-4-4-10 0-15 37-36 85-55 135-55 15 0 30 2 45 5 82 20 140 90 147 172l39-59c2-3 6-5 9-5 2 0 4 1 6 2 5 3 6 10 3 15z"/>
<glyph glyph-name="address-book" unicode="&#57534;" d="M416 351c5 0 10 4 10 10l0 30c0 6-5 10-10 10l-24 0 0 9c0 9-7 16-16 16l-274 0c-9 0-16-7-16-16l0-308c0-9 7-16 16-16l274 0c9 0 16 7 16 16l0 9 24 0c5 0 10 5 10 10l0 30c0 6-5 11-10 11l-24 0 0 29 24 0c5 0 10 4 10 10l0 30c0 6-5 11-10 11l-24 0 0 29 24 0c5 0 10 4 10 10l0 30c0 6-5 10-10 10l-24 0 0 30 24 0z m-97-165c0-6-4-11-9-11l-142 0c-5 0-10 5-10 11l0 44c0 4 3 8 6 10l56 26c-13 8-22 24-22 42 0 27 18 48 41 48 23 0 41-21 41-48 0-18-9-34-21-42l55-26c3-2 5-6 5-10l0-44z"/>
<glyph glyph-name="align-justify-1" unicode="&#57535;" d="M416 433l-320 0c-10 0-17-8-17-17l0-16c0-10 7-18 17-18l320 0c10 0 17 8 17 18l0 16c0 9-7 17-17 17z m0-101l-320 0c-10 0-17-8-17-17l0-16c0-10 7-18 17-18l320 0c10 0 17 8 17 18l0 16c0 9-7 17-17 17z m0-101l-320 0c-10 0-17-8-17-18l0-16c0-9 7-17 17-17l320 0c10 0 17 8 17 17l0 16c0 10-7 18-17 18z m0-101l-320 0c-10 0-17-8-17-18l0-16c0-9 7-17 17-17l320 0c10 0 17 8 17 17l0 16c0 10-7 18-17 18z"/>
<glyph glyph-name="clipboard-pencil" unicode="&#57536;" d="M450 292l-42 42c-2 2-6 2-9 0l-115-116 0 0-1 0-15-59 0 0c-1-2-1-5 1-6 2-2 5-3 7-2l0 0 59 16 0 0 0 0 115 116c3 2 3 6 0 9z m-163-121l9 35 26-26z m81-34l-38 0c0 0 0 0 0 0-3 0-6-3-6-6l0 0 0-45-213 0 0 314 25 0 0-15c0-1 0-1 0-1 0-5 4-9 9-9 1 0 1 0 1 0l0 0 143 0c5 0 9 4 9 9 0 0 0 0 0 0l0 16 26 0 0-44 0 0c0-4 3-7 6-7l38 0c4 0 7 3 7 7l0 68 0 0c0 0 0 0 0 0 0 15-12 27-27 27 0 0 0 0-1 0l-74 0 0 18c0 4-4 8-8 8l0 0-95 0 0 0c0 0 0 0 0 0-5 0-8-4-8-8 0 0 0 0 0-1l0-17-75 0c0 0 0 0 0 0-15 0-27-12-27-27 0 0 0 0 0 0l0 0 0-362 0 0c0 0 0 0 0 0 0-15 12-27 27-27 0 0 0 0 1 0l0 0 258 0c1 0 1 0 2 0 15 0 27 12 27 27 0 0 0 0 0 0l0 0 0 69c0 3-3 6-7 6z"/>
<glyph glyph-name="comments-1" unicode="&#57537;" d="M486 421c0 6-6 11-12 11l0 0-271 0c-7 0-12-5-13-11l0 0 0-68 114 0c6 0 11-4 12-10l0 0 0-150 56 0 33-33c3-3 7-6 11-6 7 0 13 6 13 13l0 26 45 0 0 0c6 0 11 5 12 11l0 0 0 217z m-207-93l-242 0 0 0c-6 0-11-5-11-11l0 0 0-193 0 0c1-5 5-9 11-10l0 0 40 0 0-23c0-6 5-11 11-11 4 0 8 2 10 5l30 29 151 0c5 0 10 4 11 10l0 0 0 193 0 0c0 6-5 11-11 11z"/>
<glyph glyph-name="female-1" unicode="&#57538;" d="M294 409c0-24-19-42-42-42-23 0-42 18-42 42 0 23 19 42 42 42 23 0 42-19 42-42z m75-174l-28 105c0 0 0 0 0 0l0 2 0 0c-3 8-10 13-19 13 0 0 0 0 0 0l0 1-132 0 0-1c-9 0-16-5-19-13l0 0 0-2c0 0 0 0 0 0l-28-105 0 0c0-1 0-2 0-3 0-10 8-18 17-18 8 0 14 5 17 12l0 0 21 76 0 0 0 0c0 3 3 5 5 5 3 0 5-2 6-5l0 0 0-1c0 0 0 0 0 0 0 0 0 0 0 0l0-1-33-123c-1-1-1-2-1-3l0-1 0 0c0 0 0 0 0 0 0-5 4-10 9-10l25 0 0-81c0-11 9-21 20-21 12 0 21 10 21 21l0 81 12 0 0-81c0-11 9-21 20-21 12 0 21 10 21 21l0 81 25 0c5 0 9 5 9 10 0 0 0 0 0 0l0 0 0 1c0 1 0 2-1 3l-33 122 0 0c0 1 0 1 0 2 0 3 3 6 6 6 2 0 5-2 5-5l0 0 21-76 0 0c3-7 9-12 17-12 9 0 17 8 17 18 0 1 0 2 0 3z"/>
<glyph glyph-name="graph-bar" unicode="&#57539;" d="M236 204l-73 0c-4 0-7-4-7-8l0-112c0-4 3-8 7-8l73 0c4 0 8 4 8 8l0 112c0 5-4 8-8 8z m113 232l-73 0c-4 0-8-4-8-8l0-344c0-4 4-8 8-8l73 0c4 0 7 4 7 8l0 344c0 4-3 8-7 8z m113-105l-72 0c-5 0-8-3-8-7l0-240c0-4 3-8 8-8l72 0c4 0 8 4 8 8l0 240c0 4-4 7-8 7z m-340 0l-72 0c-4 0-8-3-8-7l0-240c0-4 4-8 8-8l72 0c5 0 8 4 8 8l0 240c0 4-3 7-8 7z"/>
<glyph glyph-name="graph-pie" unicode="&#57540;" d="M277 446c-3 0-6-3-6-7 0 0 0 0 0-1l0 0 0-161c0-3 3-6 6-6l161 0 0 0c1 0 1 0 1 0 4 0 7 3 7 6-1 93-76 168-169 169z m130-208c0 4-3 7-7 7l-148 0c-4 0-7 3-7 7l0 147 0 0c0 1 0 1 0 1 0 4-3 7-6 7-1 0-1 0-1 0l0 0c0 0-1 0-2 0-94 0-170-76-170-171 0-94 76-170 170-170 95 0 171 76 171 170 0 1 0 2 0 2 0 0 0 0 0 0z"/>
<glyph glyph-name="home-2" unicode="&#57541;" d="M428 318l-167 129c-4 4-11 4-16 0l-161-129c-3-2-5-6-5-10l0-233c0-7 6-13 13-13l96 0c7 0 13 6 13 13l0 143 110 0 0-143c0-7 6-13 13-13l96 0c7 0 13 6 13 13l0 233c0 4-2 8-5 10z"/>
<glyph glyph-name="heart-2" unicode="&#57542;" d="M346 443c-36 0-69-17-90-44-21 27-54 44-90 44-63 0-114-51-114-114-1-68 32-108 58-140l6-7c31-39 128-108 132-111 2-1 5-2 8-2 3 0 6 1 8 2 4 3 101 72 132 111l6 7c26 32 59 72 59 140-1 63-52 114-115 114z"/>
<glyph glyph-name="male-1" unicode="&#57543;" d="M295 410c0-23-19-42-42-42-24 0-43 19-43 42 0 23 19 42 43 42 23 0 42-19 42-42z m38-54l0 0-152 0 0 0c-11 0-20-9-20-20l0 0 0-120 0 0c0-4 2-9 6-12 7-7 18-7 25 0 3 3 5 8 5 12l0 0 0 84 0 0c0 3 3 6 6 6 3 0 5-3 5-6l0 0 0-219c0-12 10-21 21-21 12 0 21 9 21 21l0 110 0 0c0 3 3 6 6 6 3 0 6-3 6-6l0 0 0-110c0-12 9-21 21-21 11 0 21 9 21 21l0 219c0 3 2 6 5 6 3 0 6-3 6-6l0-84 0 0c0-4 2-9 5-12 7-7 19-7 26 0 3 3 5 8 5 12l0 0 0 120c0 11-8 19-18 20z"/>
<glyph glyph-name="male-female" unicode="&#57544;" d="M157 411c0-23-19-42-43-42-23 0-42 19-42 42 0 23 19 42 42 42 24 0 43-19 43-42z m38-54l0 0-152 0 0 0c-11 0-20-8-20-19l0 0 0-120 0 0c0-5 2-10 5-13 7-7 19-7 25 0 4 3 6 8 6 13l0 0 0 83 0 0c0 3 2 6 5 6 3 0 6-3 6-6l0 0 0-219c0-12 9-21 21-21 11 0 21 9 21 21l0 110 0 0c0 3 2 6 6 6 3 0 5-3 5-6l1 0 0-110c0-12 9-21 20-21 12 0 21 9 21 21l0 219c0 3 3 6 6 6 3 0 6-3 6-6l0-83 0 0c0-5 2-10 5-13 7-7 18-7 25 0 4 3 5 8 5 13l0 0 0 120c0 10-7 18-17 19z m218 54c0-24-19-43-43-43-23 0-42 19-42 43 0 23 19 42 42 42 24 0 43-19 43-42z m76-176l-28 106c0 0 0 0 0 0l-1 2 0 0c-3 8-10 14-19 14 0 0 0 0 0 0l0 0-134 0 0 0c-9 0-16-6-19-14l0 0 0-2c0 0-1 0-1 0l-28-106 0 0c0-1 0-2 0-3 0-10 8-18 18-18 8 0 14 5 17 11l0 0 21 78 0 0 0 0c1 2 3 4 6 4 2 0 4-2 5-4l0 0 0-1c0 0 0 0 0 0 0-1 0-1 0-1l0-1-33-124c-1-1-1-2-1-4l0 0 0 0c0 0 0 0 0 0 0-6 4-10 10-10l24 0 0-82c0-12 10-21 21-21 12 0 21 9 21 21l0 82 12 0 0-82c0-12 9-21 21-21 12 0 21 9 21 21l0 82 25 0c5 0 9 4 9 10 0 0 0 0 0 0l0 0 0 0c0 2 0 3-1 4l-33 124 0 0c0 1 0 1 0 2 0 3 2 5 6 5 2 0 4-2 5-4l0 0 21-78 0 0c3-6 9-11 17-11 10 0 18 8 18 18 0 1 0 2 0 3z"/>
<glyph glyph-name="map" unicode="&#57545;" d="M471 471c0 0 0 0 0 0 0 8-6 14-14 14l0 0c0 0 0 0 0 0 0 0 0 0 0 0l-254 0 0 0-162-161 0 0 0-283 0 0c0 0 0 0 0 0 0-8 6-14 14-14l402 0c7 0 12 4 14 11l0 0 0 2c0 0 0 0 0 1 0 0 0 0 0 0z m-125-37l74 0 0-125-93 92z m-143-124l0 0c7 0 14 6 14 14 0 0 0 0 0 0l0 110 100 0-139-240-86 85 0 31z m-111-232l0 165 72-72-53-93z m48 0l174 300 106-106 0-194z m178 201c-34 0-62-28-62-62 0-14 4-26 12-36l40-69c0-1 0-1 1-1l0-1 0 0c2-2 5-4 9-4 3 0 6 1 8 4l0 0 1 0c0 1 1 2 1 3l39 67c8 11 12 23 12 37 0 34-27 62-61 62z m-1-93c-17 0-30 13-30 30 0 17 13 31 30 31 17 0 30-14 30-31 0-17-13-30-30-30z"/>
<glyph glyph-name="marker" unicode="&#57546;" d="M256 459c-80 0-144-65-144-145 0-32 10-62 28-86l93-161c0-1 1-2 2-3l0 0 0 0c5-6 12-11 21-11 8 0 15 4 20 10l0-1 1 2c1 2 2 4 3 6l91 157c18 24 29 55 29 87 0 80-64 145-144 145z m-1-218c-40 0-72 32-72 71 0 40 32 71 72 71 39 0 71-31 71-71 0-39-32-71-71-71z"/>
<glyph glyph-name="megaphone" unicode="&#57547;" d="M140 366c-42 0-77-34-77-76 0-43 35-77 77-77 7 0 13 5 14 12l0 0 0 127c0 8-6 14-14 14z m309 62c0 8-7 14-14 14-4 0-6-1-9-3l-122-70-111 0c-7 0-14-6-14-14l0-132 1 0c0-7 6-13 13-13l98 0 134-77c3-2 6-4 10-4 7 0 14 7 14 14 0 1-1 1-1 2l1 0 0 283 0 0c0 0 0 0 0 0z m-161-323l0 0c0 0 0 0-1 0 0 0 0 1 0 1l-42 73 0 0c-3 3-6 5-10 6l0 0-37 0 0 0c-2 0-4-1-6-2-6-4-9-12-5-19 0-1 1-1 1-1l0-1 50-85c0 0 0 0 0 0 0 0 0 0 0 0l0-1 0 0c4-6 12-8 19-5 0 1 1 1 2 2l0 0 25 14 0 1c5 4 7 11 4 17z"/>
<glyph glyph-name="microphone" unicode="&#57548;" d="M386 260l0 0 0 1c0 0 0 0 0 0l0 73c0 11-8 19-19 19-11 0-19-8-19-19l0-73c0-51-41-92-92-92-51 0-92 41-92 92l0 73c0 11-8 19-19 19-11 0-19-8-19-19l0-74 0 0c0-65 48-119 111-128l0-28-69 0 0 0c-10 0-19-9-19-19 0-11 9-19 19-20l0 0 176 0c10 0 19 9 19 20 0 10-9 19-19 19l-69 0 0 28c63 9 111 63 111 128z m-196 1c0-36 30-65 66-65 36 0 66 29 66 65 0 1 0 1 0 2l0 0 0 119 0 0c-1 36-30 65-66 65-36 0-65-29-66-65l0 0 0-119 0 0c0-1 0-1 0-2z"/>
<glyph glyph-name="minus-circle-1" unicode="&#57549;" d="M345 283l-178 0c-3 0-5-2-5-5l0-44c0-3 2-5 5-5l178 0c3 0 5 2 5 5l0 44c0 3-2 5-5 5z m-89 114c78 0 141-63 141-141 0-78-63-141-141-141-78 0-141 63-141 141 0 78 63 141 141 141m0 51c-106 0-192-86-192-192 0-106 86-192 192-192 106 0 192 86 192 192 0 106-86 192-192 192z"/>
<glyph glyph-name="page-copy" unicode="&#57550;" d="M385 474l0 0 0 20c0 5-4 9-8 9l-169 0-133-133 0-301c0-5 4-9 9-9l293 0c4 0 8 4 8 9l0 13 0 0z m-259-363l0 242 91 0c5 0 9 4 9 8l0 91 108 0 0-341z m303 274l-18 0 0-343c0-4-3-8-8-8l-253 0 0-17c0-5 4-8 8-8l271 0c4 0 8 3 8 8l0 360c0 4-4 8-8 8z"/>
<glyph glyph-name="page-add" unicode="&#57551;" d="M377 110l-33 0c-5 0-9-4-9-9l0 0 0-15-208 0 0 241 91 0c5 0 9 4 9 9l0 90 108 0 0-105 0 0c0-5 4-9 9-9l33 0c5 0 9 4 9 9l0 0c0 0 0 0 0 0l0 127 0 0 0 21c0 4-4 8-9 8l-168 0-133-132 0-302c0-4 4-8 9-8l292 0c5 0 9 4 9 8l0 13 0 0 0 45c0 5-4 9-9 9z m50 128l-40 0 0 40c0 5-4 8-9 8l-35 0c-5 0-9-3-9-8l0-40-40 0c-5 0-9-4-9-9l0-36c0-4 4-8 9-8l40 0 0-40c0-5 4-9 9-9l35 0c5 0 9 4 9 9l0 40 40 0c5 0 9 4 9 8l0 36c0 5-4 9-9 9z"/>
<glyph glyph-name="page" unicode="&#57552;" d="M411 448l0 0 0 21c0 4-4 8-9 8l-168 0-133-132 0-302c0-4 4-8 9-8l292 0c5 0 9 4 9 8l0 13 0 0z m-259-362l0 241 91 0c5 0 9 4 9 9l0 90 108 0 0-340z"/>
<glyph glyph-name="page-delete" unicode="&#57553;" d="M377 110l-33 0c-5 0-9-4-9-9l0 0 0-15-208 0 0 241 90 0c5 0 9 4 9 9l0 90 109 0 0-105 0 0c0-5 4-9 9-9l33 0c5 0 9 4 9 9l0 0c0 0 0 0 0 0l0 127 0 0 0 21c0 4-4 8-9 8l-168 0-133-132 0-302c0-4 4-8 9-8l292 0c5 0 9 4 9 8l0 13 0 0 0 45c0 5-4 9-9 9z m29 101l28 28c3 4 3 9 0 13l-25 25c-4 3-9 3-13 0l-28-28-28 28c-4 3-9 3-13 0l-25-25c-3-4-3-9 0-13l28-28-28-28c-3-3-3-9 0-13l25-25c4-3 9-3 13 0l28 29 28-29c4-3 9-3 13 0l25 25c3 4 3 10 0 13z"/>
<glyph glyph-name="page-edit" unicode="&#57554;" d="M343 110l-33 0c-5 0-9-4-9-9l0 0 0-15-208 0 0 241 91 0c5 0 9 4 9 9l0 90 108 0 0-63 0 0c0-4 4-8 9-8l33 0c5 0 9 4 9 8l0 0 0 1c0 0 0 0 0 0 0 0 0 0 0 0l0 84 0 0 0 21c0 4-4 8-9 8l-168 0-133-132 0-302c0-4 4-8 9-8l292 0c5 0 9 4 9 8l0 13 0 0 0 45c0 5-4 9-9 9z m124 202l-59 60c-4 3-9 3-13 0l-163-163 1-1-1 1-22-84 0 0c-1-3 0-6 2-9 3-2 7-3 10-1l0 0 82 22 0 0 0 0 163 163c4 3 4 9 0 12z m-230-170l13 49 36-36z"/>
<glyph glyph-name="page-filled" unicode="&#57555;" d="M110 327l133 0c5 0 9 4 9 9l0 133c0 4-4 8-9 8l-9 0-133-132 0-9c0-5 4-9 9-9z m292 150l-91 0c-4 0-7-2-8-6l0 0 0-187 0 0c0 0 0 0 0 0 0-5-4-9-9-9 0 0 0 0 0 0l0 0-184 0c-5 0-8-4-9-8l0 0 0-224c0-4 4-8 9-8l292 0c5 0 9 4 9 8l0 426c0 4-4 8-9 8z"/>
<glyph glyph-name="page-search" unicode="&#57556;" d="M457 448l0 0 0 21c0 4-4 8-9 8l-168 0-133-132 0-27 0 0c1-5 4-8 9-8l33 0c5 0 9 3 9 8l0 0 0 9 91 0c5 0 9 4 9 9l0 90 108 0 0-340-208 0 0 15 0 0c0 5-4 9-9 9l-33 0c-5 0-9-4-9-9l0-58c0-4 4-8 9-8l292 0c5 0 9 4 9 8l0 13 0 0z m-203-238c0 45-37 82-82 82-45 0-82-37-82-82 0-16 4-30 11-42l-40-40 1 0c-5-4-7-10-7-17 0-12 10-22 22-22 7 0 13 2 17 7l0 0 41 41c11-6 24-9 37-9 45 0 82 36 82 82z m-130 0c0 26 22 47 48 47 26 0 48-21 48-47 0-27-22-48-48-48-26 0-48 21-48 48z"/>
<glyph glyph-name="paperclip-1" unicode="&#57557;" d="M155 59c-14 0-32 5-50 23-24 24-27 47-25 62 2 17 11 34 27 50l150 151c43 42 71 26 83 13 16-15 26-42-14-82l-138-139-27 27 138 139c22 21 17 26 14 28-1 2-7 8-29-13l-150-151c-7-7-15-17-16-28-1-9 4-19 14-30 13-13 23-12 26-11 9 1 19 7 30 18 13 12 167 166 178 178 15 15 24 29 28 42 5 20-1 38-20 57-19 19-51 40-98-8l-165-165c-8-7-20-7-27 0-8 8-8 20 0 27l165 165c51 51 106 54 152 8 36-36 36-71 30-94-6-20-18-39-38-59-11-12-166-166-178-178-17-17-34-26-51-29-3 0-6-1-9-1z"/>
<glyph glyph-name="plus-2" unicode="&#57558;" d="M432 309l-123 0 0 123c0 5-5 10-10 10l-86 0c-5 0-10-5-10-10l0-123-123 0c-5 0-10-5-10-10l0-86c0-3 1-5 3-7 2-2 4-3 7-3l123 0 0-123c0-3 1-5 3-7 2-2 4-3 7-3l86 0c3 0 5 1 7 3 2 2 3 4 3 7l0 123 123 0c3 0 5 1 7 3 2 2 3 4 3 7l0 86c0 5-5 10-10 10z"/>
<glyph glyph-name="power" unicode="&#57559;" d="M392 396l0 0c-2 2-5 3-8 3-3 0-5-1-7-3l0 0-1 0c0 0 0 0 0 0l-21-19c0 0 0 0 0-1l0 0 0 0c-2-2-3-4-3-7 0-4 2-8 5-10 25-25 40-60 40-98 0-78-63-141-141-141-78 0-141 63-141 141 0 38 16 73 41 99l0 0c2 2 4 5 4 9 0 3-2 5-4 7l0 0 0 0c0 1 0 1 0 1l-21 19c0 0 0 0 0 0l-1 0 0 0c-2 2-4 3-7 3-4 0-8-2-10-6-33-34-53-81-53-132 0-106 86-192 192-192 106 0 192 86 192 192 0 52-21 100-56 135z m-150-205l28 0c0 0 0 0 0 0 6 0 11 5 11 11l0 230 0 0c0 0 0 0 0 0 0 6-5 11-11 11 0 0 0 0 0 0l-28 0c-6 0-11-5-11-11 0 0 0 0 0 0l0 0 0-230c0-6 5-11 11-11z"/>
<glyph glyph-name="pricetag-multiple" unicode="&#57560;" d="M452 164c0 0 0 0 0 1l0 0-138 238 0 0c-1 2-3 3-5 4l0 0-41 24 46-79 103-179 0 0c0 0 0 0 0 0 3-5 2-12-3-15l0 0-153-88 6-12c0 0 1 0 1-1 3-5 9-6 14-4l0 0 166 96 0 0c5 3 7 10 4 15z m-74 4c5 3 7 10 4 15 0 0 0 0 0 0l0 0-138 239 0 0c-1 2-3 3-5 4l0 0-56 33 0-1c-3 2-6 2-9 1l0 0-2 0c0-1 0-1 0-1 0 0 0 0 0 0l-108-62c-3-2-5-6-5-9l0 0 0-65 0 0c-1-2 0-5 1-7 0 0 0 0 0 0l138-238c0 0 0 0 0-1 3-5 9-6 14-4l0 0 166 96z m-227 203c-9-5-21-2-27 7-5 10-2 22 7 27 10 6 22 3 28-7 5-9 2-21-8-27z"/>
</font>
</defs>
</svg>
